<?xml version="1.0" standalone="no"?>
<!DOCTYPE svg PUBLIC "-//W3C//DTD SVG 1.1//EN" "http://www.w3.org/Graphics/SVG/1.1/DTD/svg11.dtd" >
<svg xmlns="http://www.w3.org/2000/svg">
<metadata></metadata>
<defs>
<font id="maven_probold" horiz-adv-x="1441" >
<font-face units-per-em="2048" ascent="1638" descent="-410" />
<missing-glyph horiz-adv-x="692" />
<glyph horiz-adv-x="2048" />
<glyph horiz-adv-x="2048" />
<glyph unicode="&#xd;" horiz-adv-x="682" />
<glyph unicode=" "  horiz-adv-x="692" />
<glyph unicode="&#x09;" horiz-adv-x="692" />
<glyph unicode="&#xa0;" horiz-adv-x="692" />
<glyph unicode="!" horiz-adv-x="825" d="M283 1366h280l-45 -973h-190zM303 0v227h240v-227h-240z" />
<glyph unicode="&#x22;" horiz-adv-x="825" d="M166 1384h205l-35 -411h-133zM461 1384h205l-35 -411h-133z" />
<glyph unicode="#" horiz-adv-x="1216" d="M152 256v152h180l51 292h-174v152h201l36 217h162l-39 -217h232l39 217h159l-38 -217h133v-152h-158l-51 -292h153v-152h-178l-39 -217h-162l39 217h-231l-37 -217h-162l39 217h-155zM494 408h231l49 292h-229z" />
<glyph unicode="$" horiz-adv-x="1181" d="M150 987q0 174 111.5 273.5t289.5 119.5v209h119v-207q168 -6 334 -92v-239q-160 102 -334 104v-340q74 -23 120 -39t109.5 -53t100 -81t63.5 -116t27 -164q0 -154 -121 -257t-299 -117v-209h-119v209q-219 14 -383 114v250q174 -129 383 -131v379q-76 23 -117 37 t-104.5 47t-96 70t-58 97t-25.5 136zM395 993q0 -53 39 -84.5t117 -58.5v293q-156 -33 -156 -150zM670 229q174 27 174 150q0 121 -174 184v-334z" />
<glyph unicode="%" horiz-adv-x="1777" d="M145 983q0 377 289 377q291 0 291 -377t-291 -377q-289 0 -289 377zM305 983q0 -133 36 -179t93.5 -46t93 46t35.5 179q0 135 -35.5 180t-93 45t-93.5 -45t-36 -180zM381 0l858 1366h174l-858 -1366h-174zM1065 383q0 377 289 377q291 0 291 -377t-291 -377 q-289 0 -289 377zM1225 383q0 -133 35.5 -179t93 -46t93.5 46t36 179q0 135 -36 180t-93.5 45t-93 -45t-35.5 -180z" />
<glyph unicode="&#x26;" horiz-adv-x="1310" d="M113 389q0 53 7 94t31.5 96.5t79 108.5t138.5 103q-125 131 -125 249q0 137 85 235.5t240 98.5q139 0 232.5 -92t93.5 -227q0 -104 -50 -174t-173 -152l229 -274q29 72 43 155h201q-29 -180 -109 -319l244 -291h-262l-105 129q-152 -145 -364 -145q-113 0 -201 41 t-137 103t-73.5 130t-24.5 131zM307 383q0 -39 17.5 -83t77 -87t151.5 -43q135 0 242 106l-301 361q-66 -35 -108 -72t-57.5 -72.5t-18.5 -56t-3 -53.5zM438 1059q0 -14 5.5 -31.5t10.5 -29t18 -32t19.5 -27.5t25 -29.5t22.5 -26.5q96 57 129.5 97t33.5 87q0 53 -37.5 90 t-93 37t-94.5 -39t-39 -96z" />
<glyph unicode="'" horiz-adv-x="534" d="M166 1384h205l-35 -411h-133z" />
<glyph unicode="(" horiz-adv-x="751" d="M190 627q0 440 211 856h213q-211 -416 -211 -856q0 -436 211 -858h-213q-211 422 -211 858z" />
<glyph unicode=")" horiz-adv-x="751" d="M133 -231q211 412 211 858q0 449 -211 856h213q211 -416 211 -856q0 -436 -211 -858h-213z" />
<glyph unicode="*" horiz-adv-x="845" d="M172 1133l166 57l-166 57l78 139l123 -104l-25 156h160l-25 -156l123 104l78 -139l-166 -57l166 -57l-78 -140l-123 105l25 -156h-160l25 156l-123 -105z" />
<glyph unicode="+" horiz-adv-x="1128" d="M199 520v182h272v275h182v-275h273v-182h-273v-270h-182v270h-272z" />
<glyph unicode="," horiz-adv-x="677" d="M152 -229l151 401h215l-182 -401h-184z" />
<glyph unicode="-" horiz-adv-x="950" d="M162 514v193h624v-193h-624z" />
<glyph unicode="." horiz-adv-x="759" d="M260 0v227h240v-227h-240z" />
<glyph unicode="/" horiz-adv-x="897" d="M-29 -201l752 1749h205l-754 -1749h-203z" />
<glyph unicode="0" horiz-adv-x="1345" d="M133 677.5q0 700.5 538.5 700.5t538.5 -700.5t-538.5 -700.5t-538.5 700.5zM379 678q0 -156 24.5 -260.5t71.5 -152.5t92 -64.5t104.5 -16.5t104.5 16.5t92 64.5t72 152.5t25 260.5q0 125 -17.5 218t-45.5 144.5t-68.5 82t-77.5 39.5t-84 9t-84 -9t-78 -39.5t-68.5 -82 t-45 -144.5t-17.5 -218z" />
<glyph unicode="1" horiz-adv-x="993" d="M211 936v262l266 168h223v-1366h-245v1085z" />
<glyph unicode="2" horiz-adv-x="1226" d="M158 0v201q94 70 192.5 154.5t205 193t174 222.5t67.5 204q0 70 -56.5 117t-185.5 47q-100 0 -205.5 -34t-179.5 -85v244q195 120 392 120h3q242 0 358.5 -120.5t116.5 -288.5q0 -182 -137 -373.5t-336 -357.5h494v-244h-903z" />
<glyph unicode="3" horiz-adv-x="1228" d="M166 84v250q180 -106 373 -107q290 0 290 188q0 91 -68.5 149.5t-230.5 58.5h-174v202h181q115 0 171 47.5t56 116.5q0 82 -73 116t-169 34q-178 0 -327 -90v251q178 84 342 84q205 0 339 -92t134 -295q0 -168 -168 -260q104 -37 167.5 -121t63.5 -204q0 -96 -32.5 -172 t-85 -123t-123 -78t-138 -43t-139.5 -12q-203 0 -389 100z" />
<glyph unicode="4" horiz-adv-x="1234" d="M78 385v203l622 778h234v-762h178v-219h-178v-385h-246v385h-610zM365 604h323v420z" />
<glyph unicode="5" horiz-adv-x="1245" d="M170 709l74 657h751v-244h-542q-4 -51 -12.5 -126.5t-12.5 -123.5q96 18 184 18q2 1 4 1q86 0 158 -19q74 -20 146.5 -67t113.5 -141.5t41 -227.5q0 -135 -41 -229t-110.5 -140.5t-143 -65.5t-162.5 -19q-227 0 -415 96v248q190 -121 401 -121q227 0 227 211v20 q-10 219 -223 223h-9q-174 0 -292 -73z" />
<glyph unicode="6" horiz-adv-x="1222" d="M131 629q0 195 49 340t117 222t162 123t162.5 58t140.5 12q100 0 235 -38v-218q-82 27 -221 27q-47 0 -98 -12.5t-113.5 -42t-112 -96t-65.5 -160.5q90 69 250 69q221 0 342 -120.5t121 -331.5q0 -86 -26.5 -167t-81 -152.5t-152 -114.5t-224.5 -43q-485 0 -485 645z M378 585q0 -103 20 -179q22 -91 64 -132t78.5 -57t75.5 -16q76 0 128.5 31.5t73 80.5t27.5 84t7 66q0 104 -61.5 166.5t-174.5 62.5q-133 0 -237 -69q-1 -19 -1 -38z" />
<glyph unicode="7" horiz-adv-x="1202" d="M141 1120v246h965v-195l-563 -1171h-291l545 1120h-656z" />
<glyph unicode="8" horiz-adv-x="1236" d="M129 408q0 74 25.5 134t61.5 94t73 57.5t63 31.5l25 8q-8 2 -21.5 7t-48.5 26.5t-61.5 49.5t-48 81t-21.5 119q0 172 119 270t325.5 98t325.5 -98t119 -270q0 -188 -158 -266l-41 -17q10 -2 26.5 -8t58.5 -30.5t75 -58.5t59.5 -94.5t26.5 -133.5q0 -199 -129 -311.5 t-362.5 -112.5t-362.5 112.5t-129 311.5zM375 416q0 -111 61.5 -175.5t184 -64.5t184 63.5t61.5 176.5q0 82 -63.5 141t-182 59t-182 -59t-63.5 -141zM422 1010q0 -98 59.5 -140.5t139 -42.5t139 42t59.5 141q0 74 -51 124t-147.5 50t-147.5 -50.5t-51 -123.5z" />
<glyph unicode="9" horiz-adv-x="1234" d="M117 907q0 86 26.5 167t81 152.5t151.5 114.5t224 43q485 0 485 -645q0 -195 -49 -340t-116.5 -222t-161.5 -123t-163 -58t-140 -12q-100 0 -236 39v217q82 -27 221 -27q47 0 98.5 12.5t114 42t111.5 96t65 160.5q-89 -69 -249 -69q-221 0 -342 120.5t-121 331.5z M365 905q0 -104 61 -166.5t174 -62.5q133 0 238 69q1 19 1 38q0 103 -19 179q-23 91 -65 132t-79 57t-76 16q-76 0 -128 -31.5t-72.5 -80.5t-27.5 -84t-7 -66z" />
<glyph unicode=":" horiz-adv-x="813" d="M293 78v223h235v-223h-235zM293 723v223h235v-223h-235z" />
<glyph unicode=";" horiz-adv-x="858" d="M182 -229l152 401h215l-182 -401h-185zM322 723v223h235v-223h-235z" />
<glyph unicode="&#x3c;" horiz-adv-x="1351" d="M246 477v148l850 379v-211l-617 -242l617 -242v-211z" />
<glyph unicode="=" horiz-adv-x="1306" d="M260 348v176h789v-176h-789zM260 698v176h789v-176h-789z" />
<glyph unicode="&#x3e;" horiz-adv-x="1329" d="M270 98v211l617 242l-617 242v211l850 -379v-148z" />
<glyph unicode="?" horiz-adv-x="1042" d="M164 1059v227q150 96 321 96q115 0 200 -33.5t132 -92t69.5 -126t22.5 -145.5q0 -70 -22.5 -126t-56 -92t-72.5 -74l-73 -73q-34 -34 -56.5 -87.5t-22.5 -118.5v-21h-217v27q0 104 31 184t76 127t89 86t74.5 81t30.5 89q0 182 -221 182q-180 0 -305 -110zM379 0v227h239 v-227h-239z" />
<glyph unicode="@" horiz-adv-x="1869" d="M170 371q0 184 79 349t205 276.5t282.5 176t310.5 64.5q84 0 174 -22.5t183 -75t165.5 -127t119 -191t46.5 -258.5q0 -207 -92.5 -362.5t-266.5 -155.5q-82 0 -127 54.5t-51 97.5q-27 -66 -101.5 -109t-185.5 -43q-154 0 -242.5 69.5t-88.5 190.5q0 53 17 99.5t62.5 94.5 t142.5 76.5t238 28.5q45 0 115 -4q0 76 -34 114t-140 38q-166 0 -279 -43q4 29 13.5 82t13.5 81q158 51 270 52q166 0 252 -77t86 -226q0 -51 -16 -156t-16 -162q0 -133 92 -133q74 0 147.5 103.5t73.5 289.5q0 127 -53.5 234.5t-137.5 175t-185 105.5t-202 38 q-295 0 -522 -224t-227 -527q0 -129 46 -233.5t111.5 -163t145.5 -97.5t141.5 -52.5t106.5 -13.5q262 0 465 99l-21 -131q-188 -84 -442 -84q-106 0 -217 37.5t-216.5 113.5t-173 214.5t-67.5 316.5zM762 309q-1 -80 149 -80q119 0 165 50.5t54 175.5q-27 2 -90 2 q-279 0 -278 -148z" />
<glyph unicode="A" d="M43 0l543 1366h270l543 -1366h-264l-125 328h-578l-125 -328h-264zM516 551h408l-203 536z" />
<glyph unicode="B" horiz-adv-x="1323" d="M178 0v1366h492q94 0 174 -19.5t149.5 -61.5t109.5 -120t40 -184q0 -180 -162 -264q238 -86 238 -316q0 -55 -9.5 -103t-42 -105.5t-85 -97.5t-145.5 -67.5t-218 -27.5h-541zM424 215h283q266 0 266 199q0 178 -275 178h-274v-377zM424 809h260q213 0 213 164 q0 180 -231 180h-242v-344z" />
<glyph unicode="C" horiz-adv-x="1286" d="M125 684q0 168 39 295t100.5 202.5t148.5 123t170 63.5t179 16q209 0 414 -81v-230q-195 90 -392 90q-92 0 -157.5 -16.5t-128 -63.5t-95 -147t-32.5 -252t32.5 -252t95 -147t128 -63.5t157.5 -16.5q197 0 392 90v-229q-205 -82 -414 -82q-96 0 -179 16t-170 63.5 t-148.5 123t-100.5 202.5t-39 295z" />
<glyph unicode="D" horiz-adv-x="1419" d="M178 0v1366h471q317 0 481 -174t164 -510q0 -334 -163.5 -508t-481.5 -174h-471zM424 223h225q213 0 306.5 107.5t93.5 351.5q0 246 -93.5 353.5t-306.5 107.5h-225v-920z" />
<glyph unicode="E" horiz-adv-x="1204" d="M178 0v1366h909v-221h-663v-346h575v-232h-575v-346h663v-221h-909z" />
<glyph unicode="F" horiz-adv-x="1142" d="M178 0v1366h883v-221h-637v-346h551v-232h-551v-567h-246z" />
<glyph unicode="G" horiz-adv-x="1406" d="M125 682q0 168 39 295t100.5 202.5t148.5 123t170 63.5t179 16q217 0 450 -92v-225q-221 98 -426 98q-72 0 -127 -9t-111 -39t-93 -81t-60.5 -140t-23.5 -210q0 -123 23.5 -212t60.5 -140t93 -81t111.5 -39t126.5 -9q113 0 242 35v327h-321v217h548v-682 q-238 -116 -489 -116h-4q-96 0 -179 16t-170 63.5t-148.5 122t-100.5 202.5t-39 294z" />
<glyph unicode="H" horiz-adv-x="1429" d="M178 0v1366h246v-567h580v567h245v-1366h-245v567h-580v-567h-246z" />
<glyph unicode="I" horiz-adv-x="600" d="M178 0v1366h246v-1366h-246z" />
<glyph unicode="J" horiz-adv-x="1003" d="M59 72v243q125 -102 281 -102q115 0 169 48t54 188v917h246v-909q0 -145 -44 -245.5t-117 -147t-139.5 -63.5t-139.5 -17q-168 0 -310 88z" />
<glyph unicode="K" horiz-adv-x="1415" d="M178 0v1366h246v-578l516 578h330l-551 -600l608 -766h-307l-459 592l-137 -150v-442h-246z" />
<glyph unicode="L" horiz-adv-x="1124" d="M178 0v1366h246v-1133h657v-233h-903z" />
<glyph unicode="M" horiz-adv-x="1695" d="M178 0v1366h273l395 -571l395 571h272v-1366h-245v1010l-422 -604l-422 604v-1010h-246z" />
<glyph unicode="N" horiz-adv-x="1587" d="M178 0v1366h279l702 -1012v1012h246v-1366h-275l-706 1020v-1020h-246z" />
<glyph unicode="O" horiz-adv-x="1538" d="M125 682q0 168 39 295t100.5 202.5t148.5 123t170 63.5t179 16t179 -16t170 -63.5t149.5 -123t101.5 -202.5t39 -295q0 -166 -39 -294t-101.5 -202.5t-149.5 -122t-170 -63.5t-179 -16t-179 16t-170 63.5t-148.5 122t-100.5 202.5t-39 294zM371 684q0 -154 30.5 -255 t90 -148.5t122 -64.5t148.5 -17q70 0 121 9t105 38.5t88 82t56.5 142.5t22.5 213q0 152 -30.5 253t-91 148.5t-122 63.5t-149.5 16q-68 0 -119 -9t-105.5 -39t-88 -81t-56 -140t-22.5 -212z" />
<glyph unicode="P" horiz-adv-x="1277" d="M176 0v1366h510q242 0 374 -120t132 -339t-132 -338.5t-374 -119.5h-264v-449h-246zM422 672h246q162 0 221 59.5t59 175.5q0 115 -59.5 173.5t-220.5 58.5h-246v-467z" />
<glyph unicode="Q" horiz-adv-x="1529" d="M125 682q0 168 39 295t100.5 202.5t148.5 123t171 63.5t180 16t179 -16t170 -63.5t149.5 -123t101.5 -202.5t39 -295q0 -152 -32 -269.5t-84 -193.5t-126 -127t-148.5 -74.5t-160.5 -31.5q0 -94 69.5 -136.5t165.5 -42.5v-188q-438 0 -438 369q-106 14 -193 53 t-165 115.5t-122 211t-44 314.5zM371 682q0 -154 30.5 -254t91 -148.5t122 -64.5t149.5 -16q86 0 148.5 16t123 64.5t91 148.5t30.5 254t-30.5 254t-91 148.5t-123 64.5t-148.5 16q-88 0 -149.5 -16t-122 -64.5t-91 -148.5t-30.5 -254z" />
<glyph unicode="R" horiz-adv-x="1337" d="M178 0v1366h524q240 0 373 -113.5t133 -324.5q0 -314 -299 -406l359 -522h-297l-326 481h-221v-481h-246zM424 707h272q125 0 196 45t71 170q0 127 -71 171t-196 44h-272v-430z" />
<glyph unicode="S" horiz-adv-x="1189" d="M125 985q0 197 139 297t348 100q184 0 367 -94v-239q-158 104 -338 104q-113 0 -191.5 -39t-78.5 -123q0 -68 71.5 -106.5t173 -65t204 -66.5t174 -138.5t71.5 -254.5q0 -166 -137 -271t-334 -105q-260 0 -451 116v250q176 -131 394 -131q282 0 282 157q0 71 -51 118 t-129 69.5t-167 53t-167 66.5t-129 112.5t-51 189.5z" />
<glyph unicode="T" horiz-adv-x="1169" d="M25 1120v246h1120v-246h-438v-1120h-246v1120h-436z" />
<glyph unicode="U" horiz-adv-x="1511" d="M178 578v788h246v-809q0 -180 78 -264t248 -84t248.5 84t78.5 264v809h246v-788q0 -283 -150.5 -438.5t-423 -155.5t-422 155.5t-149.5 438.5z" />
<glyph unicode="V" horiz-adv-x="1347" d="M25 1366h262l387 -1061l387 1061h262l-522 -1366h-252z" />
<glyph unicode="W" horiz-adv-x="2045" d="M25 1366h258l307 -1010l325 1010h215l326 -1010l309 1010h256l-438 -1366h-254l-305 952l-307 -952h-254z" />
<glyph unicode="X" horiz-adv-x="1329" d="M25 0l485 690l-473 676h299l326 -461l323 461h289l-469 -666l491 -700h-299l-344 487l-344 -487h-284z" />
<glyph unicode="Y" horiz-adv-x="1368" d="M25 1366h297l362 -555l360 555h297l-534 -780v-586h-246v586z" />
<glyph unicode="Z" horiz-adv-x="1271" d="M131 0v225l684 895h-676v246h981v-219l-688 -901h688v-246h-989z" />
<glyph unicode="[" horiz-adv-x="808" d="M244 -238v1663h395v-190h-207v-1282h207v-191h-395z" />
<glyph unicode="\" horiz-adv-x="829" d="M-76 1548h205l752 -1749h-203z" />
<glyph unicode="]" horiz-adv-x="808" d="M172 -47h207v1282h-207v190h395v-1663h-395v191z" />
<glyph unicode="^" horiz-adv-x="1146" d="M264 969l223 444h113l225 -444h-170l-110 260l-111 -260h-170z" />
<glyph unicode="_" horiz-adv-x="1118" d="M0 -49h1118v-141h-1118v141z" />
<glyph unicode="`" horiz-adv-x="522" d="M92 1395h201l127 -240h-137z" />
<glyph unicode="a" horiz-adv-x="1110" d="M115 334q0 31 6 63.5t31.5 81.5t69.5 86t130 63.5t203 26.5q84 0 180 -14q0 193 -217 193q-172 0 -299 -52v199q141 57 313 57q219 0 335 -111.5t116 -322.5v-276q0 -141 -105.5 -242.5t-324.5 -101.5q-225 0 -331.5 102t-106.5 248zM358 365q0 -164 193 -164h2 q184 0 184 155v129q-86 12 -147 13q-231 0 -232 -133z" />
<glyph unicode="b" horiz-adv-x="1181" d="M170 328v1085h246v-391q88 16 168 16q229 0 352 -133t123 -383q0 -137 -36 -241.5t-85 -158.5t-117.5 -88t-119 -42t-101.5 -8q-219 0 -324.5 101t-105.5 243zM416 305q0 -110 184 -110q117 0 164 79.5t47 260.5q0 172 -60.5 240.5t-175.5 68.5q-90 0 -159 -17v-522z" />
<glyph unicode="c" horiz-adv-x="966" d="M119 510q0 256 125 392t358 136q150 0 295 -57v-205q-121 49 -254 49q-141 0 -209.5 -64.5t-68.5 -250.5q0 -184 68.5 -249.5t209.5 -65.5q127 0 254 51v-205q-145 -57 -295 -57q-233 0 -358 136t-125 390z" />
<glyph unicode="d" horiz-adv-x="1167" d="M129 522q0 250 122 383t351 133q82 0 170 -16v391h246v-1085q0 -141 -106.5 -242.5t-325.5 -101.5q-51 0 -101.5 8t-118 42t-117.5 88t-85 158.5t-35 241.5zM375 535q0 -180 47 -260t164 -80q186 0 186 110v522q-72 16 -162 17q-115 0 -175 -68.5t-60 -240.5z" />
<glyph unicode="e" horiz-adv-x="1144" d="M129 500q0 246 109.5 393t347.5 147q225 0 340.5 -143t115.5 -352q0 -86 -4 -127h-657q10 -133 79.5 -178t180.5 -45q180 0 348 79v-198q-170 -92 -385 -92q-68 0 -128 11t-125.5 46t-113 89t-78 149.5t-30.5 220.5zM381 588h412q-10 106 -62.5 179t-144.5 73 t-143.5 -59.5t-61.5 -192.5z" />
<glyph unicode="f" horiz-adv-x="731" d="M82 811v211h174q2 424 381 424q49 0 100 -10v-193q-37 4 -55 4q-96 0 -138 -46t-42 -179h235v-211h-235v-811h-246v811h-174z" />
<glyph unicode="g" horiz-adv-x="1122" d="M123 514q0 135 35 235.5t83 153.5t113.5 86t114.5 41t98 8q215 0 316.5 -98t101.5 -238v-727q0 -49 -9 -93t-38 -98t-77 -92t-135 -64.5t-202 -26.5q-162 0 -295 41v219q123 -41 267 -41q86 0 140 13t73.5 41t24.5 47.5t5 53.5v56q-82 -16 -155 -17q-223 0 -342 129 t-119 371zM369 510q0 -172 55 -233.5t168 -61.5q75 0 147 14v476q0 114 -169 114h-3q-98 0 -148 -71.5t-50 -237.5z" />
<glyph unicode="h" horiz-adv-x="1228" d="M193 0v1411h245v-407q88 34 205 34q213 0 333 -111.5t120 -312.5v-614h-244v635q0 41 -7 68.5t-30.5 57.5t-77 45t-135.5 15q-96 0 -164 -30v-791h-245z" />
<glyph unicode="i" horiz-adv-x="638" d="M193 1161v225h251v-225h-251zM197 0v1022h245v-1022h-245z" />
<glyph unicode="j" horiz-adv-x="593" d="M6 -205q70 4 112 17.5t57 42t18.5 49t3.5 65.5v1053h245v-1036q0 -66 -7 -113t-33.5 -99.5t-72.5 -85t-128 -56t-195 -27.5v190zM193 1161v225h251v-225h-251z" />
<glyph unicode="k" horiz-adv-x="1226" d="M188 0v1405h246v-758l344 375h326l-445 -455l492 -567h-311l-338 403l-68 -69v-334h-246z" />
<glyph unicode="l" horiz-adv-x="659" d="M207 0v1411h246v-1411h-246z" />
<glyph unicode="m" horiz-adv-x="1908" d="M193 0v924q227 114 446 114h4q166 0 277 -75q190 75 368 75q207 0 322.5 -112.5t115.5 -311.5v-614h-245v631q0 98 -49.5 148t-184.5 50q-106 0 -209 -24q43 -49 43 -191v-614h-243v637q0 94 -48.5 141t-181.5 47q-88 0 -170 -16v-809h-245z" />
<glyph unicode="n" horiz-adv-x="1273" d="M168 0v926q225 112 469 112q213 0 333 -111.5t120 -312.5v-614h-244v635q0 41 -7.5 68.5t-30 57.5t-73.5 45t-131 15q-90 0 -190 -18v-803h-246z" />
<glyph unicode="o" horiz-adv-x="1159" d="M100 510q0 254 125 390t358.5 136t358.5 -136t125 -390t-125 -390t-358.5 -136t-358.5 136t-125 390zM346 509.5q0 -190.5 58.5 -257t179.5 -66.5t179 66.5t58 257t-58 257.5t-179 67t-179.5 -67t-58.5 -257.5z" />
<glyph unicode="p" horiz-adv-x="1175" d="M168 -379v1071q0 141 105.5 242.5t324.5 101.5q51 0 101.5 -8t119 -42t117.5 -88t85 -158.5t36 -241.5q0 -250 -123 -384t-352 -134q-86 0 -168 18v-377h-246zM414 182q85 -12 151 -12q119 0 181.5 69.5t62.5 245.5q0 180 -47 260t-164 80q-184 0 -184 -110v-533z" />
<glyph unicode="q" horiz-adv-x="1171" d="M115 498q0 137 34.5 241.5t85 158.5t118 88t117.5 42t101 8q219 0 326 -101t107 -243v-1071h-246v377q-82 -18 -170 -18q-229 0 -351 134t-122 384zM360 485q0 -176 62.5 -245.5t181.5 -69.5q68 0 154 12v533q0 110 -184 110h-3q-117 0 -164 -80t-47 -260z" />
<glyph unicode="r" horiz-adv-x="741" d="M166 0v930q25 12 69 28.5t177 47t264 32.5v-213q-154 -2 -264 -34v-791h-246z" />
<glyph unicode="s" horiz-adv-x="923" d="M100 719q0 154 108.5 236.5t270.5 82.5q152 0 279 -73v-187q-104 49 -236 49q-176 0 -176 -86q0 -43 50 -67.5t122 -43t143.5 -50t122 -106.5t50.5 -191q0 -129 -104.5 -214t-276.5 -85q-176 0 -324 84v219q135 -90 289 -90q106 0 138 24.5t32 73.5q0 45 -50.5 72.5 t-122 48t-143 48.5t-122 92.5t-50.5 162.5z" />
<glyph unicode="t" horiz-adv-x="794" d="M49 811v211h172v303h246v-303h242v-211h-242v-504q0 -66 27.5 -89t97.5 -23q66 0 117 22v-203q-72 -30 -157 -30h-5q-152 0 -239 90t-87 248v489h-172z" />
<glyph unicode="u" horiz-adv-x="1259" d="M168 463v559h248v-592q0 -123 50 -177t163 -54q115 0 165 54t50 177v592h248v-559q0 -225 -123 -352t-340 -127t-339 127t-122 352z" />
<glyph unicode="v" horiz-adv-x="1169" d="M66 1022h262l256 -772l256 772h264l-391 -1022h-256z" />
<glyph unicode="w" horiz-adv-x="1710" d="M78 1022h260l217 -737l195 737h211l194 -737l217 737h260l-362 -1022h-246l-168 588l-170 -588h-246z" />
<glyph unicode="x" horiz-adv-x="1142" d="M57 0l363 516l-354 506h301l204 -291l205 291h273l-342 -483l378 -539h-301l-229 326l-231 -326h-267z" />
<glyph unicode="y" horiz-adv-x="1107" d="M63 1022h261l229 -713l225 713h260l-389 -1047q-82 -223 -178 -300.5t-199 -77.5q-76 0 -155 28v205q59 -25 116 -25q106 0 197 248z" />
<glyph unicode="z" horiz-adv-x="999" d="M92 0v229l471 570h-461v223h777v-227l-478 -572h478v-223h-787z" />
<glyph unicode="{" horiz-adv-x="784" d="M186 506v194q12 2 28.5 7.5t45.5 34t29 71.5v293q0 145 81 235.5t242 90.5h41v-185h-24q-43 0 -70 -11t-37 -34.5t-13 -41t-3 -48.5v-289q0 -86 -52.5 -142t-117.5 -79q66 -20 118 -76.5t52 -142.5v-289q0 -31 3 -48t13 -40.5t37 -35t70 -11.5h24v-184h-41 q-162 0 -242.5 90t-80.5 235v293q0 41 -25.5 70t-50.5 37z" />
<glyph unicode="|" horiz-adv-x="954" d="M379 -203v1569h219v-1569h-219z" />
<glyph unicode="}" horiz-adv-x="784" d="M156 -41h22q43 0 69.5 11.5t37 35t13.5 40.5t3 48v289q0 86 52.5 142.5t117.5 76.5q-66 23 -118 79t-52 142v289q0 31 -3 48.5t-13.5 41t-37 34.5t-69.5 11h-22v185h39q164 0 244.5 -89.5t80.5 -236.5v-293q0 -43 25.5 -70.5t52.5 -33.5l25 -9v-194q-4 0 -11.5 -2 t-25 -10.5t-30.5 -19.5t-24.5 -32.5t-11.5 -48.5v-293q0 -147 -81 -236t-244 -89h-39v184z" />
<glyph unicode="~" horiz-adv-x="1071" d="M201 457v168q57 68 129 74q11 1 23 1q59 0 116 -26l135 -60q57 -25 115 -25q12 0 23 1q71 6 128 74v-168q-57 -68 -128 -74q-11 -1 -23 -1q-58 0 -115 25l-135 60q-56 26 -115 26q-12 0 -24 -2q-72 -6 -129 -73z" />
<glyph unicode="&#xa1;" horiz-adv-x="825" d="M283 -344l45 973h190l45 -973h-280zM303 795v227h240v-227h-240z" />
<glyph unicode="&#xa2;" horiz-adv-x="976" d="M117 682q0 246 115.5 382t334.5 146v156h119v-160q98 -10 209 -53v-205q-98 41 -209 47v-626q104 6 209 49v-205q-111 -43 -209 -53v-160h-119v156q-219 10 -334.5 145t-115.5 381zM362 682q0 -158 51.5 -228.5t153.5 -82.5v622q-102 -12 -153.5 -81.5t-51.5 -229.5z" />
<glyph unicode="&#xa3;" horiz-adv-x="1153" d="M100 -31v209q51 39 174 68v319h-174v195h174v235q0 160 105.5 273.5t327.5 113.5q168 0 331 -94v-211q-149 113 -313 113q-117 0 -178.5 -56.5t-61.5 -152.5v-221h377v-195h-377v-325q6 -2 75 -20.5t85.5 -21.5t74.5 -14q49 -10 76 -10h8q27 2 74.5 4t85 15.5t74.5 35.5 v-215q-86 -44 -182 -44h-4q-98 1 -186 25.5t-178 46.5q-54 13 -112 13q-38 0 -78 -6q-101 -14 -198 -80z" />
<glyph unicode="&#xa5;" horiz-adv-x="1396" d="M37 1366h297l362 -555l361 555h297l-410 -598h162v-184h-287v-160h287v-184h-287v-240h-246v240h-288v184h288v160h-288v184h161z" />
<glyph unicode="&#xa7;" horiz-adv-x="1247" d="M137 709q0 98 79 152t175 59q-47 20 -78.5 69t-31.5 103q0 106 67.5 174.5t158.5 93t204 24.5q184 0 344 -92v-211q-164 78 -314 78q-74 0 -135 -21.5t-61 -72.5q0 -27 42 -50.5t105.5 -41t136 -46t136 -61t105.5 -90t42 -131.5q0 -86 -65.5 -137t-161.5 -62 q84 -51 84 -167q0 -133 -117 -214t-315 -81q-211 0 -394 120v230q164 -133 369 -133q82 0 141.5 22.5t59.5 69.5q0 35 -59.5 60.5t-143.5 50t-169 56.5t-144.5 95t-59.5 154zM401 719q0 -43 68 -75t254 -93q61 6 93 33.5t32 54.5q0 37 -55.5 66.5t-147.5 57.5t-106 34 q-45 -4 -91.5 -24.5t-46.5 -53.5z" />
<glyph unicode="&#xa8;" horiz-adv-x="856" d="M162 1155v195h207v-195h-207zM489 1155v195h207v-195h-207z" />
<glyph unicode="&#xa9;" horiz-adv-x="1593" d="M98 682q0 291 205 495.5t494 204.5q291 0 495.5 -204.5t204.5 -495.5q0 -289 -205 -493.5t-495 -204.5q-289 0 -494 204.5t-205 493.5zM203 682q0 -246 174 -420t420 -174q248 0 422 174t174 420q0 248 -174.5 422t-421.5 174q-246 0 -420 -174t-174 -422zM440 682 q0 121 33 206t90.5 127t116.5 59.5t131 17.5q123 0 242 -48v-135q-117 53 -229 53q-1 1 -2 1q-112 0 -174 -57q-64 -56 -64 -224t63 -223.5t176 -55.5q119 0 230 54v-135q-119 -47 -242 -48q-72 0 -131 17.5t-116.5 58.5t-90.5 126t-33 206z" />
<glyph unicode="&#xaa;" horiz-adv-x="808" d="M154 989q0 25 7 48.5t28.5 57t74.5 54t133 20.5q39 0 101 -8q0 106 -121 107q-98 0 -166 -29v111q78 32 174 32q121 0 186.5 -62.5t65.5 -178.5v-154q0 -80 -58.5 -136t-181.5 -56q-125 0 -184 57t-59 137zM289 1008q0 -92 106 -93q105 1 105 89v71q-74 6 -82 6 q-129 0 -129 -73z" />
<glyph unicode="&#xab;" horiz-adv-x="1247" d="M66 522l346 389h286l-372 -389l372 -391h-286zM522 522l346 389h287l-373 -389l373 -391h-287z" />
<glyph unicode="&#xac;" horiz-adv-x="1273" d="M199 492v192h876v-389h-176v197h-700z" />
<glyph unicode="&#xad;" horiz-adv-x="950" d="M162 514v193h624v-193h-624z" />
<glyph unicode="&#xae;" horiz-adv-x="1593" d="M100 682q0 291 205 495.5t494 204.5q291 0 495.5 -204.5t204.5 -495.5q0 -289 -204.5 -493.5t-495.5 -204.5q-289 0 -494 204.5t-205 493.5zM205 682q0 -246 174 -420t420 -174q248 0 422 174t174 420q0 248 -174 422t-422 174q-246 0 -420 -174t-174 -422zM528 285v796 h306q139 0 216.5 -66.5t77.5 -189.5q0 -184 -174 -235l209 -305h-174l-188 280h-129v-280h-144zM672 696h157q72 0 114 26t42 99.5t-42 100t-114 26.5h-157v-252z" />
<glyph unicode="&#xaf;" horiz-adv-x="825" d="M176 1180v145h479v-145h-479z" />
<glyph unicode="&#xb0;" horiz-adv-x="792" d="M168 1143q0 111 57.5 169t166 58t165.5 -58.5t57 -168.5q0 -109 -57 -167t-165.5 -58t-166 58t-57.5 167zM276 1145q0 -68 28 -97.5t87.5 -29.5t86 29.5t26.5 97.5q0 66 -26.5 95.5t-86 29.5t-87.5 -30t-28 -95z" />
<glyph unicode="&#xb1;" horiz-adv-x="1198" d="M242 61v166h727v-166h-727zM242 604v182h272v275h182v-275h273v-182h-273v-270h-182v270h-272z" />
<glyph unicode="&#xb2;" horiz-adv-x="696" d="M109 948v109q125 92 234.5 209.5t109.5 208.5q0 88 -129 88q-119 0 -209 -66v133q106 63 213 64q131 0 193.5 -64.5t62.5 -154.5q0 -180 -254 -396h266v-131h-487z" />
<glyph unicode="&#xb3;" horiz-adv-x="686" d="M111 993v135q96 -57 200 -57q158 0 158 100q0 113 -162 113h-94v109h98q61 0 91 25.5t30 62.5q0 80 -129 80q-100 0 -176 -48v136q98 45 184 45q109 0 181.5 -49.5t72.5 -159.5q0 -90 -90 -139q125 -43 125 -177q0 -121 -85 -175t-196 -54q-109 0 -208 53z" />
<glyph unicode="&#xb4;" horiz-adv-x="528" d="M121 1155l127 240h201l-191 -240h-137z" />
<glyph unicode="&#xb5;" horiz-adv-x="1323" d="M203 -430v1452h243v-635q0 -41 7.5 -68.5t30 -57.5t73.5 -45t131 -15q90 0 191 18v803h245v-926q-223 -112 -465 -112h-4q-127 0 -209 51v-465h-243z" />
<glyph unicode="&#xb6;" horiz-adv-x="911" d="M78 946q0 203 121 311.5t350 108.5h299v-1366h-232v524h-67q-229 0 -350 108.5t-121 313.5z" />
<glyph unicode="&#xb7;" horiz-adv-x="663" d="M211 444v228h240v-228h-240z" />
<glyph unicode="&#xb8;" horiz-adv-x="563" d="M119 -256l178 246h160l-127 -246h-211z" />
<glyph unicode="&#xb9;" horiz-adv-x="512" d="M109 1452v141l143 90h121v-735h-133v586z" />
<glyph unicode="&#xba;" horiz-adv-x="854" d="M152 1092q0 141 69.5 216.5t200.5 75.5t200.5 -75.5t69.5 -216.5q0 -143 -69.5 -219t-200.5 -76t-200.5 75.5t-69.5 219.5zM289 1092q0 -106 32.5 -144.5t100.5 -38.5q66 0 99.5 38t33.5 145q0 104 -34 142t-99 38q-68 0 -100.5 -38t-32.5 -142z" />
<glyph unicode="&#xbb;" horiz-adv-x="1277" d="M106 131l373 389l-373 391h287l346 -391l-346 -389h-287zM563 131l373 389l-373 391h287l346 -391l-346 -389h-287z" />
<glyph unicode="&#xbc;" horiz-adv-x="1476" d="M109 1149v141l143 90h121v-735h-133v586zM168 -45l895 1448h164l-895 -1448h-164zM825 209v108l336 418h125v-409h96v-117h-96v-209h-131v209h-330zM981 326h174v227z" />
<glyph unicode="&#xbd;" horiz-adv-x="1527" d="M109 1149v141l143 90h121v-735h-133v586zM168 -45l895 1448h164l-895 -1448h-164zM936 0v109q125 92 234.5 209.5t109.5 207.5q0 88 -129 88q-119 0 -209 -65v133q106 63 213 63q131 0 193.5 -64.5t62.5 -154.5q0 -180 -254 -395h266v-131h-487z" />
<glyph unicode="&#xbe;" horiz-adv-x="1691" d="M135 688v135q96 -57 201 -57q158 0 158 100q0 113 -162 113h-94v108h98q61 0 91 26t30 63q0 79 -126 79h-3q-100 0 -176 -47v135q98 45 184 46q109 0 181.5 -49.5t72.5 -159.5q0 -91 -90 -140q125 -43 125 -176q0 -121 -85 -175t-196 -54q-109 0 -209 53zM369 -45 l895 1448h163l-895 -1448h-163zM1032 209v108l336 418h125v-409h96v-117h-96v-209h-131v209h-330zM1188 326h174v227z" />
<glyph unicode="&#xbf;" horiz-adv-x="1042" d="M156 37q0 70 22.5 126t56 92t72.5 74l73 73q34 34 56.5 87.5t22.5 118.5v21h217v-27q0 -104 -31 -184t-76 -127t-89 -86t-74.5 -81t-30.5 -89q0 -182 221 -182q180 0 305 110v-227q-150 -96 -321 -96q-115 0 -200 33.5t-132 92t-69.5 126t-22.5 145.5zM446 795v227h240 v-227h-240z" />
<glyph unicode="&#xc0;" d="M43 0l543 1366h270l543 -1366h-264l-125 328h-578l-125 -328h-264zM459 1722h200l127 -239h-137zM516 551h408l-203 536z" />
<glyph unicode="&#xc1;" d="M43 0l543 1366h270l543 -1366h-264l-125 328h-578l-125 -328h-264zM516 551h408l-203 536zM655 1483l127 239h201l-190 -239h-138z" />
<glyph unicode="&#xc2;" d="M43 0l543 1366h270l543 -1366h-264l-125 328h-578l-125 -328h-264zM485 1483l187 250h98l188 -250h-163l-74 114l-74 -114h-162zM516 551h408l-203 536z" />
<glyph unicode="&#xc3;" d="M43 0l543 1366h270l543 -1366h-264l-125 328h-578l-125 -328h-264zM410 1481v155q57 68 124 74q10 1 21 1q55 0 105 -25l122 -61q51 -25 104 -25q12 0 24 2q65 6 122 73v-155q-57 -68 -122 -74q-12 -1 -23 -1q-53 0 -105 25l-122 60q-50 26 -104 26q-11 0 -22 -2 q-67 -6 -124 -73zM516 551h408l-203 536z" />
<glyph unicode="&#xc4;" d="M43 0l543 1366h270l543 -1366h-264l-125 328h-578l-125 -328h-264zM455 1483v194h207v-194h-207zM516 551h408l-203 536zM782 1483v194h207v-194h-207z" />
<glyph unicode="&#xc5;" d="M43 0l543 1366h270l543 -1366h-264l-125 328h-578l-125 -328h-264zM516 551h408l-203 536zM543 1599.5q0 83.5 47 130t131 46.5q86 0 132 -46.5t46 -130t-46 -130t-132 -46.5q-84 0 -131 46.5t-47 130zM651 1599.5q0 -49.5 15.5 -69t54.5 -19.5t54.5 19.5t15.5 69 t-15.5 69t-54.5 19.5t-54.5 -19.5t-15.5 -69z" />
<glyph unicode="&#xc6;" horiz-adv-x="2039" d="M51 0l864 1366h1002v-221h-664v-346h576v-232h-576v-346h664v-221h-909v307h-478l-188 -307h-291zM655 512h353v578z" />
<glyph unicode="&#xc7;" horiz-adv-x="1286" d="M125 684q0 168 39 295t100.5 202.5t148.5 123t170 63.5t179 16q211 0 412 -81v-230q-191 90 -390 90q-92 0 -157.5 -16.5t-128 -63.5t-95 -147t-32.5 -252t32.5 -252t95 -147t128 -63.5t157.5 -16.5q199 0 390 90v-229q-170 -72 -349 -80l-123 -242h-213l177 244 q-109 12 -198 50t-171 113.5t-127 212t-45 320.5z" />
<glyph unicode="&#xc8;" horiz-adv-x="1204" d="M178 0v1366h909v-221h-663v-346h575v-232h-575v-346h663v-221h-909zM397 1722h201l127 -239h-137z" />
<glyph unicode="&#xc9;" horiz-adv-x="1204" d="M178 0v1366h909v-221h-663v-346h575v-232h-575v-346h663v-221h-909zM555 1483l127 239h201l-191 -239h-137z" />
<glyph unicode="&#xca;" horiz-adv-x="1204" d="M178 0v1366h909v-221h-663v-346h575v-232h-575v-346h663v-221h-909zM414 1483l186 250h98l189 -250h-164l-74 114l-74 -114h-161z" />
<glyph unicode="&#xcb;" horiz-adv-x="1204" d="M178 0v1366h909v-221h-663v-346h575v-232h-575v-346h663v-221h-909zM389 1483v194h207v-194h-207zM717 1483v194h207v-194h-207z" />
<glyph unicode="&#xcc;" horiz-adv-x="600" d="M35 1722h201l126 -239h-137zM178 0h246v1366h-246v-1366z" />
<glyph unicode="&#xcd;" horiz-adv-x="600" d="M178 0h246v1366h-246v-1366zM240 1483l127 239h200l-190 -239h-137z" />
<glyph unicode="&#xce;" horiz-adv-x="600" d="M63 1483l187 250h98l189 -250h-164l-74 114l-74 -114h-162zM178 0h246v1366h-246v-1366z" />
<glyph unicode="&#xcf;" horiz-adv-x="600" d="M33 1483v194h207v-194h-207zM178 0h246v1366h-246v-1366zM360 1483v194h207v-194h-207z" />
<glyph unicode="&#xd0;" horiz-adv-x="1509" d="M106 598v168h162v600h471q317 0 481 -174t164 -510q0 -334 -163.5 -508t-481.5 -174h-471v598h-162zM514 223h225q213 0 306.5 107.5t93.5 351.5q0 246 -93.5 353.5t-306.5 107.5h-225v-377h242v-168h-242v-375z" />
<glyph unicode="&#xd1;" horiz-adv-x="1587" d="M178 0v1366h279l702 -1012v1012h246v-1366h-275l-706 1020v-1020h-246zM481 1481v155q57 68 124 74q11 1 22 1q55 0 105 -25l122 -61q50 -25 104 -25q11 0 23 2q66 6 123 73v-155q-57 -68 -123 -74q-11 -1 -22 -1q-54 0 -105 25l-122 60q-50 26 -104 26q-11 0 -22 -2 q-67 -6 -125 -73z" />
<glyph unicode="&#xd2;" horiz-adv-x="1538" d="M125 682q0 168 39 295t100.5 202.5t148.5 123t170 63.5t179 16t179 -16t170 -63.5t149.5 -123t101.5 -202.5t39 -295q0 -166 -39 -294t-101.5 -202.5t-149.5 -122t-170 -63.5t-179 -16t-179 16t-170 63.5t-148.5 122t-100.5 202.5t-39 294zM371 684q0 -154 30.5 -255 t90 -148.5t122 -64.5t148.5 -17q70 0 121 9t105 38.5t88 82t56.5 142.5t22.5 213q0 152 -30.5 253t-91 148.5t-122 63.5t-149.5 16q-68 0 -119 -9t-105.5 -39t-88 -81t-56 -140t-22.5 -212zM518 1722h201l127 -239h-137z" />
<glyph unicode="&#xd3;" horiz-adv-x="1538" d="M125 682q0 168 39 295t100.5 202.5t148.5 123t170 63.5t179 16t179 -16t170 -63.5t149.5 -123t101.5 -202.5t39 -295q0 -166 -39 -294t-101.5 -202.5t-149.5 -122t-170 -63.5t-179 -16t-179 16t-170 63.5t-148.5 122t-100.5 202.5t-39 294zM371 684q0 -154 30.5 -255 t90 -148.5t122 -64.5t148.5 -17q70 0 121 9t105 38.5t88 82t56.5 142.5t22.5 213q0 152 -30.5 253t-91 148.5t-122 63.5t-149.5 16q-68 0 -119 -9t-105.5 -39t-88 -81t-56 -140t-22.5 -212zM680 1483l127 239h201l-191 -239h-137z" />
<glyph unicode="&#xd4;" horiz-adv-x="1538" d="M125 682q0 168 39 295t100.5 202.5t148.5 123t170 63.5t179 16t179 -16t170 -63.5t149.5 -123t101.5 -202.5t39 -295q0 -166 -39 -294t-101.5 -202.5t-149.5 -122t-170 -63.5t-179 -16t-179 16t-170 63.5t-148.5 122t-100.5 202.5t-39 294zM371 684q0 -154 30.5 -255 t90 -148.5t122 -64.5t148.5 -17q70 0 121 9t105 38.5t88 82t56.5 142.5t22.5 213q0 152 -30.5 253t-91 148.5t-122 63.5t-149.5 16q-68 0 -119 -9t-105.5 -39t-88 -81t-56 -140t-22.5 -212zM526 1483l187 250h98l188 -250h-163l-74 114l-74 -114h-162z" />
<glyph unicode="&#xd5;" horiz-adv-x="1538" d="M125 682q0 168 39 295t100.5 202.5t148.5 123t170 63.5t179 16t179 -16t170 -63.5t149.5 -123t101.5 -202.5t39 -295q0 -166 -39 -294t-101.5 -202.5t-149.5 -122t-170 -63.5t-179 -16t-179 16t-170 63.5t-148.5 122t-100.5 202.5t-39 294zM371 684q0 -154 30.5 -255 t90 -148.5t122 -64.5t148.5 -17q70 0 121 9t105 38.5t88 82t56.5 142.5t22.5 213q0 152 -30.5 253t-91 148.5t-122 63.5t-149.5 16q-68 0 -119 -9t-105.5 -39t-88 -81t-56 -140t-22.5 -212zM451 1481v155q57 68 123 74q11 1 22 1q55 0 106 -25l122 -61q50 -25 103 -25 q12 0 23 2q66 6 123 73v-155q-57 -68 -123 -74q-11 -1 -22 -1q-53 0 -104 25l-122 60q-51 26 -105 26q-11 0 -23 -2q-66 -6 -123 -73z" />
<glyph unicode="&#xd6;" horiz-adv-x="1538" d="M125 682q0 168 39 295t100.5 202.5t148.5 123t170 63.5t179 16t179 -16t170 -63.5t149.5 -123t101.5 -202.5t39 -295q0 -166 -39 -294t-101.5 -202.5t-149.5 -122t-170 -63.5t-179 -16t-179 16t-170 63.5t-148.5 122t-100.5 202.5t-39 294zM371 684q0 -154 30.5 -255 t90 -148.5t122 -64.5t148.5 -17q70 0 121 9t105 38.5t88 82t56.5 142.5t22.5 213q0 152 -30.5 253t-91 148.5t-122 63.5t-149.5 16q-68 0 -119 -9t-105.5 -39t-88 -81t-56 -140t-22.5 -212zM496 1483v194h206v-194h-206zM823 1483v194h207v-194h-207z" />
<glyph unicode="&#xd7;" horiz-adv-x="1062" d="M156 160l282 364l-282 365h184l190 -246l193 246h182l-280 -365l280 -364h-182l-193 243l-190 -243h-184z" />
<glyph unicode="&#xd8;" horiz-adv-x="1529" d="M68 0l178 211q-121 174 -121 471q0 168 39 295t100.5 202.5t148.5 123t170 63.5t179 16q233 0 385 -102l74 86h237l-180 -213q123 -178 123 -471q0 -166 -39 -294t-101.5 -202.5t-149.5 -122t-170 -63.5t-179 -16q-233 0 -387 100l-70 -84h-237zM371 684q0 -168 39 -278 l594 702q-84 57 -242 57q-68 0 -119 -9t-105.5 -39t-88 -81t-56 -140t-22.5 -212zM520 256q84 -57 242 -57q70 0 121 9t105 38.5t88 82t56.5 142.5t22.5 213q0 162 -41 274z" />
<glyph unicode="&#xd9;" horiz-adv-x="1511" d="M178 578v788h246v-809q0 -180 78 -264t248 -84t248.5 84t78.5 264v809h246v-788q0 -283 -150.5 -438.5t-423 -155.5t-422 155.5t-149.5 438.5zM506 1722h201l127 -239h-138z" />
<glyph unicode="&#xda;" horiz-adv-x="1511" d="M178 578v788h246v-809q0 -180 78 -264t248 -84t248.5 84t78.5 264v809h246v-788q0 -283 -150.5 -438.5t-423 -155.5t-422 155.5t-149.5 438.5zM668 1483l127 239h200l-190 -239h-137z" />
<glyph unicode="&#xdb;" horiz-adv-x="1511" d="M178 578v788h246v-809q0 -180 78 -264t248 -84t248.5 84t78.5 264v809h246v-788q0 -283 -150.5 -438.5t-423 -155.5t-422 155.5t-149.5 438.5zM514 1483l186 250h99l188 -250h-164l-73 114l-74 -114h-162z" />
<glyph unicode="&#xdc;" horiz-adv-x="1511" d="M178 578v788h246v-809q0 -180 78 -264t248 -84t248.5 84t78.5 264v809h246v-788q0 -283 -150.5 -438.5t-423 -155.5t-422 155.5t-149.5 438.5zM483 1483v194h207v-194h-207zM811 1483v194h207v-194h-207z" />
<glyph unicode="&#xdd;" horiz-adv-x="1368" d="M25 1366h297l362 -555l360 555h297l-534 -780v-586h-246v586zM594 1483l127 239h201l-191 -239h-137z" />
<glyph unicode="&#xde;" horiz-adv-x="1253" d="M176 0v1366h246v-172h209q242 0 374 -120t132 -339t-132.5 -339t-373.5 -120h-209v-276h-246zM422 500h190q162 0 221.5 59t59.5 176q0 115 -59.5 173.5t-221.5 58.5h-190v-467z" />
<glyph unicode="&#xdf;" horiz-adv-x="1255" d="M180 0v856q0 156 40 265.5t108.5 162.5t140.5 75.5t156 22.5q223 0 344 -113t121 -265q0 -109 -63.5 -187t-133.5 -104q37 -10 70.5 -27.5t82 -51.5t77 -93.5t28.5 -134.5q0 -201 -160 -310q-144 -97 -364 -97q-24 0 -49 1v199h12q334 0 334 215q0 193 -346 204v181 q66 0 124 11t113 58t55 127q0 213 -219 213q-51 0 -89 -13t-75.5 -48t-58 -109.5t-20.5 -187.5v-850h-228z" />
<glyph unicode="&#xe0;" horiz-adv-x="1110" d="M115 334q0 31 6 63.5t31.5 81.5t69.5 86t130 63.5t203 26.5q84 0 180 -14q0 193 -217 193q-172 0 -299 -52v199q141 57 313 57q219 0 335 -111.5t116 -322.5v-276q0 -141 -105.5 -242.5t-324.5 -101.5q-225 0 -331.5 102t-106.5 248zM313 1395h201l127 -240h-137z M358 365q0 -164 193 -164h2q184 0 184 155v129q-86 12 -147 13q-231 0 -232 -133z" />
<glyph unicode="&#xe1;" horiz-adv-x="1110" d="M115 334q0 31 6 63.5t31.5 81.5t69.5 86t130 63.5t203 26.5q84 0 180 -14q0 193 -217 193q-172 0 -299 -52v199q141 57 313 57q219 0 335 -111.5t116 -322.5v-276q0 -141 -105.5 -242.5t-324.5 -101.5q-225 0 -331.5 102t-106.5 248zM358 365q0 -164 193 -164h2 q184 0 184 155v129q-86 12 -147 13q-231 0 -232 -133zM459 1155l127 240h200l-190 -240h-137z" />
<glyph unicode="&#xe2;" horiz-adv-x="1110" d="M115 334q0 31 6 63.5t31.5 81.5t69.5 86t130 63.5t203 26.5q84 0 180 -14q0 193 -217 193q-172 0 -299 -52v199q141 57 313 57q219 0 335 -111.5t116 -322.5v-276q0 -141 -105.5 -242.5t-324.5 -101.5q-225 0 -331.5 102t-106.5 248zM338 1155l186 250h99l188 -250h-164 l-74 115l-73 -115h-162zM358 365q0 -164 193 -164h2q184 0 184 155v129q-86 12 -147 13q-231 0 -232 -133z" />
<glyph unicode="&#xe3;" horiz-adv-x="1110" d="M115 334q0 31 6 63.5t31.5 81.5t69.5 86t130 63.5t203 26.5q84 0 180 -14q0 193 -217 193q-172 0 -299 -52v199q141 57 313 57q219 0 335 -111.5t116 -322.5v-276q0 -141 -105.5 -242.5t-324.5 -101.5q-225 0 -331.5 102t-106.5 248zM258 1153v156q57 68 124 74 q11 1 22 1q55 0 105 -26l121 -60q52 -25 105 -25q11 0 23 1q65 6 123 74v-156q-57 -68 -123 -74q-11 -1 -22 -1q-54 0 -106 25l-121 60q-50 26 -105 26q-11 0 -22 -1q-67 -6 -124 -74zM358 365q0 -164 193 -164h2q184 0 184 155v129q-86 12 -147 13q-231 0 -232 -133z" />
<glyph unicode="&#xe4;" horiz-adv-x="1110" d="M115 334q0 31 6 63.5t31.5 81.5t69.5 86t130 63.5t203 26.5q84 0 180 -14q0 193 -217 193q-172 0 -299 -52v199q141 57 313 57q219 0 335 -111.5t116 -322.5v-276q0 -141 -105.5 -242.5t-324.5 -101.5q-225 0 -331.5 102t-106.5 248zM287 1155v195h207v-195h-207z M358 365q0 -164 193 -164h2q184 0 184 155v129q-86 12 -147 13q-231 0 -232 -133zM614 1155v195h207v-195h-207z" />
<glyph unicode="&#xe5;" horiz-adv-x="1110" d="M115 334q0 31 6 63.5t31.5 81.5t69.5 86t130 63.5t203 26.5q84 0 180 -14q0 193 -217 193q-172 0 -299 -52v199q141 57 313 57q219 0 335 -111.5t116 -322.5v-276q0 -141 -105.5 -242.5t-324.5 -101.5q-225 0 -331.5 102t-106.5 248zM358 365q0 -164 193 -164h2 q184 0 184 155v129q-86 12 -147 13q-231 0 -232 -133zM389 1272q0 84 47 130t131 46q86 0 132 -46t46 -130t-46 -130t-132 -46q-84 0 -131 46t-47 130zM498 1272q0 -49 15 -68.5t54 -19.5t54.5 19.5t15.5 68.5t-15.5 68.5t-54.5 19.5t-54 -19.5t-15 -68.5z" />
<glyph unicode="&#xe6;" horiz-adv-x="1792" d="M109 334q0 31 6 63.5t31.5 81.5t69.5 86t130 63.5t203 26.5q84 0 180 -14q0 193 -217 193q-172 0 -299 -52v199q141 57 313 57q236 0 338 -143q35 57 121 101t199 44q225 0 340.5 -143t115.5 -352q0 -86 -4 -127h-657q10 -133 79.5 -178t180.5 -45q180 0 348 79v-198 q-170 -92 -385 -92q-104 0 -193 43t-135 102q-106 -145 -327 -145q-225 0 -331.5 102t-106.5 248zM352 365q0 -164 193 -164h2q184 0 184 155v129q-86 12 -147 13q-231 0 -232 -133zM979 588h412q-10 106 -62.5 179t-144.5 73t-143.5 -59.5t-61.5 -192.5z" />
<glyph unicode="&#xe7;" horiz-adv-x="966" d="M119 510q0 256 125 392t358 136q150 0 295 -57v-205q-121 49 -254 49q-141 0 -209.5 -64.5t-68.5 -250.5q0 -184 68.5 -249.5t209.5 -65.5q127 0 254 51v-205q-106 -45 -227 -53l-123 -244h-213l176 246q-190 25 -290.5 158t-100.5 362z" />
<glyph unicode="&#xe8;" horiz-adv-x="1144" d="M129 500q0 246 109.5 393t347.5 147q225 0 340.5 -143t115.5 -352q0 -86 -4 -127h-657q10 -133 79.5 -178t180.5 -45q180 0 348 79v-198q-170 -92 -385 -92q-68 0 -128 11t-125.5 46t-113 89t-78 149.5t-30.5 220.5zM334 1395h201l127 -240h-138zM381 588h412 q-10 106 -62.5 179t-144.5 73t-143.5 -59.5t-61.5 -192.5z" />
<glyph unicode="&#xe9;" horiz-adv-x="1144" d="M129 500q0 246 109.5 393t347.5 147q225 0 340.5 -143t115.5 -352q0 -86 -4 -127h-657q10 -133 79.5 -178t180.5 -45q180 0 348 79v-198q-170 -92 -385 -92q-68 0 -128 11t-125.5 46t-113 89t-78 149.5t-30.5 220.5zM381 588h412q-10 106 -62.5 179t-144.5 73 t-143.5 -59.5t-61.5 -192.5zM496 1155l127 240h200l-190 -240h-137z" />
<glyph unicode="&#xea;" horiz-adv-x="1144" d="M129 500q0 246 109.5 393t347.5 147q225 0 340.5 -143t115.5 -352q0 -86 -4 -127h-657q10 -133 79.5 -178t180.5 -45q180 0 348 79v-198q-170 -92 -385 -92q-68 0 -128 11t-125.5 46t-113 89t-78 149.5t-30.5 220.5zM346 1155l186 250h99l188 -250h-164l-73 115l-74 -115 h-162zM381 588h412q-10 106 -62.5 179t-144.5 73t-143.5 -59.5t-61.5 -192.5z" />
<glyph unicode="&#xeb;" horiz-adv-x="1144" d="M129 500q0 246 109.5 393t347.5 147q225 0 340.5 -143t115.5 -352q0 -86 -4 -127h-657q10 -133 79.5 -178t180.5 -45q180 0 348 79v-198q-170 -92 -385 -92q-68 0 -128 11t-125.5 46t-113 89t-78 149.5t-30.5 220.5zM309 1155v195h207v-195h-207zM381 588h412 q-10 106 -62.5 179t-144.5 73t-143.5 -59.5t-61.5 -192.5zM637 1155v195h207v-195h-207z" />
<glyph unicode="&#xec;" horiz-adv-x="638" d="M63 1395h201l127 -240h-137zM197 0h245v1022h-245v-1022z" />
<glyph unicode="&#xed;" horiz-adv-x="638" d="M197 0h245v1022h-245v-1022zM248 1155l127 240h200l-190 -240h-137z" />
<glyph unicode="&#xee;" horiz-adv-x="638" d="M84 1155l186 250h99l188 -250h-164l-74 115l-73 -115h-162zM197 0h245v1022h-245v-1022z" />
<glyph unicode="&#xef;" horiz-adv-x="638" d="M53 1155v195h207v-195h-207zM197 0h245v1022h-245v-1022zM381 1155v195h207v-195h-207z" />
<glyph unicode="&#xf0;" horiz-adv-x="1232" d="M117 461q0 211 120.5 331.5t342.5 120.5q160 0 249 -69q-27 152 -145 237l-180 -123l-78 113l104 74q-41 10 -90 10q-82 0 -145 -10v219q92 20 160 20q178 0 315 -75l162 112l78 -114l-123 -84q199 -195 198 -594q0 -645 -485 -645q-127 0 -224 43t-151.5 114.5 t-81 152.5t-26.5 167zM365 463q0 -31 7 -66t27.5 -84t72.5 -80.5t128 -31.5q39 0 76 16t79 57t65 132q19 76 19 179q0 19 -1 38q-103 69 -234 69h-4q-113 0 -174 -62.5t-61 -166.5z" />
<glyph unicode="&#xf1;" horiz-adv-x="1273" d="M168 0v926q225 112 469 112q213 0 333 -111.5t120 -312.5v-614h-244v635q0 41 -7.5 68.5t-30 57.5t-73.5 45t-131 15q-90 0 -190 -18v-803h-246zM326 1153v156q57 68 124 74q10 1 21 1q55 0 105 -26l122 -60q52 -25 105 -25q11 0 23 1q65 6 122 74v-156q-57 -68 -122 -74 q-12 -1 -23 -1q-53 0 -105 25l-122 60q-50 26 -105 26q-11 0 -21 -1q-67 -6 -124 -74z" />
<glyph unicode="&#xf2;" horiz-adv-x="1159" d="M100 510q0 254 125 390t358.5 136t358.5 -136t125 -390t-125 -390t-358.5 -136t-358.5 136t-125 390zM326 1395h200l127 -240h-137zM346 509.5q0 -190.5 58.5 -257t179.5 -66.5t179 66.5t58 257t-58 257.5t-179 67t-179.5 -67t-58.5 -257.5z" />
<glyph unicode="&#xf3;" horiz-adv-x="1159" d="M100 510q0 254 125 390t358.5 136t358.5 -136t125 -390t-125 -390t-358.5 -136t-358.5 136t-125 390zM346 509.5q0 -190.5 58.5 -257t179.5 -66.5t179 66.5t58 257t-58 257.5t-179 67t-179.5 -67t-58.5 -257.5zM514 1155l127 240h201l-191 -240h-137z" />
<glyph unicode="&#xf4;" horiz-adv-x="1159" d="M100 510q0 254 125 390t358.5 136t358.5 -136t125 -390t-125 -390t-358.5 -136t-358.5 136t-125 390zM346 509.5q0 -190.5 58.5 -257t179.5 -66.5t179 66.5t58 257t-58 257.5t-179 67t-179.5 -67t-58.5 -257.5zM348 1155l187 250h98l188 -250h-164l-73 115l-74 -115h-162 z" />
<glyph unicode="&#xf5;" horiz-adv-x="1159" d="M100 510q0 254 125 390t358.5 136t358.5 -136t125 -390t-125 -390t-358.5 -136t-358.5 136t-125 390zM272 1153v156q57 68 124 74q11 1 22 1q55 0 106 -26l122 -60q51 -25 104 -25q11 0 22 1q66 6 123 74v-156q-57 -68 -123 -74q-11 -1 -22 -1q-53 0 -104 25l-122 60 q-51 26 -106 26q-11 0 -22 -1q-66 -6 -124 -74zM346 509.5q0 -190.5 58.5 -257t179.5 -66.5t179 66.5t58 257t-58 257.5t-179 67t-179.5 -67t-58.5 -257.5z" />
<glyph unicode="&#xf6;" horiz-adv-x="1159" d="M100 510q0 254 125 390t358.5 136t358.5 -136t125 -390t-125 -390t-358.5 -136t-358.5 136t-125 390zM317 1155v195h207v-195h-207zM346 509.5q0 -190.5 58.5 -257t179.5 -66.5t179 66.5t58 257t-58 257.5t-179 67t-179.5 -67t-58.5 -257.5zM645 1155v195h207v-195h-207z " />
<glyph unicode="&#xf7;" horiz-adv-x="1286" d="M211 446v164h866v-164h-866zM541 129v193h207v-193h-207zM541 737v193h207v-193h-207z" />
<glyph unicode="&#xf8;" horiz-adv-x="1175" d="M39 0l147 176q-82 133 -82 334q0 254 125 390t359 136q164 0 270 -63l43 49h238l-150 -176q82 -127 82 -336q0 -254 -125 -390t-358 -136q-158 0 -271 65l-41 -49h-237zM350 510q0 -68 10 -129l361 426q-47 27 -133 27q-121 0 -179.5 -67t-58.5 -257zM457 215 q51 -29 131 -29q121 0 179 67t58 257q0 82 -8 131z" />
<glyph unicode="&#xf9;" horiz-adv-x="1259" d="M168 463v559h248v-592q0 -123 50 -177t163 -54q115 0 165 54t50 177v592h248v-559q0 -225 -123 -352t-340 -127t-339 127t-122 352zM381 1395h201l127 -240h-138z" />
<glyph unicode="&#xfa;" horiz-adv-x="1259" d="M168 463v559h248v-592q0 -123 50 -177t163 -54q115 0 165 54t50 177v592h248v-559q0 -225 -123 -352t-340 -127t-339 127t-122 352zM551 1155l127 240h201l-191 -240h-137z" />
<glyph unicode="&#xfb;" horiz-adv-x="1259" d="M168 463v559h248v-592q0 -123 50 -177t163 -54q115 0 165 54t50 177v592h248v-559q0 -225 -123 -352t-340 -127t-339 127t-122 352zM393 1155l187 250h98l188 -250h-164l-73 115l-74 -115h-162z" />
<glyph unicode="&#xfc;" horiz-adv-x="1259" d="M168 463v559h248v-592q0 -123 50 -177t163 -54q115 0 165 54t50 177v592h248v-559q0 -225 -123 -352t-340 -127t-339 127t-122 352zM362 1155v195h207v-195h-207zM690 1155v195h207v-195h-207z" />
<glyph unicode="&#xfd;" horiz-adv-x="1107" d="M63 1022h261l229 -713l225 713h260l-389 -1047q-82 -223 -178 -300.5t-199 -77.5q-76 0 -155 28v205q59 -25 116 -25q106 0 197 248zM473 1155l127 240h201l-191 -240h-137z" />
<glyph unicode="&#xfe;" horiz-adv-x="1157" d="M170 -377v1778h246v-389q88 16 168 16q229 0 352 -133t123 -383t-123 -383t-352 -133q-80 0 -168 16v-389h-246zM416 207q69 -17 159 -17q115 0 175.5 71t60.5 251t-60.5 251t-175.5 71q-90 0 -159 -17v-610z" />
<glyph unicode="&#xff;" horiz-adv-x="1107" d="M63 1022h261l229 -713l225 713h260l-389 -1047q-82 -223 -178 -300.5t-199 -77.5q-76 0 -155 28v205q59 -25 116 -25q106 0 197 248zM285 1155v195h207v-195h-207zM612 1155v195h207v-195h-207z" />
<glyph unicode="&#x152;" horiz-adv-x="2074" d="M123 682q0 168 39 295t100.5 202.5t148.5 123t170 63.5t179 16q147 0 270 -43v27h909v-221h-663v-346h575v-232h-575v-346h663v-221h-909v27q-115 -43 -270 -43q-96 0 -179 16t-170 63.5t-148.5 122t-100.5 202.5t-39 294zM369 684q0 -154 33.5 -255t98 -148.5 t131.5 -64.5t161 -17q145 0 237 37v884q-111 45 -237 45q-94 0 -161 -16t-131.5 -63.5t-98 -148.5t-33.5 -253z" />
<glyph unicode="&#x153;" horiz-adv-x="1853" d="M98 512q0 254 125 390t359 136q229 0 356 -133q119 135 338 135q225 0 341 -143t116 -352q0 -86 -4 -127h-658q10 -133 80 -178t180 -45q180 0 348 79v-198q-170 -92 -385 -92q-233 0 -356 135q-123 -133 -356.5 -133t-358.5 136t-125 390zM344 512q0 -190 58.5 -257 t179 -67t179 67t58.5 257t-58.5 257t-179 67t-179 -67t-58.5 -257zM1071 588h412q-10 106 -62.5 179t-144.5 73t-143.5 -59.5t-61.5 -192.5z" />
<glyph unicode="&#x178;" horiz-adv-x="1368" d="M25 1366h297l362 -555l360 555h297l-534 -780v-586h-246v586zM418 1483v194h207v-194h-207zM745 1483v194h207v-194h-207z" />
<glyph unicode="&#x2c6;" horiz-adv-x="874" d="M201 1155l186 250h98l189 -250h-164l-74 115l-74 -115h-161z" />
<glyph unicode="&#x2dc;" horiz-adv-x="1058" d="M215 1153v156q57 68 124 74q11 1 22 1q55 0 105 -26l122 -60q51 -25 104 -25q11 0 22 1q66 6 124 74v-156q-57 -68 -123 -74q-11 -1 -22 -1q-54 0 -105 25l-122 60q-50 26 -105 26q-11 0 -22 -1q-67 -6 -124 -74z" />
<glyph unicode="&#x2000;" horiz-adv-x="888" />
<glyph unicode="&#x2001;" horiz-adv-x="1776" />
<glyph unicode="&#x2002;" horiz-adv-x="888" />
<glyph unicode="&#x2003;" horiz-adv-x="1776" />
<glyph unicode="&#x2004;" horiz-adv-x="592" />
<glyph unicode="&#x2005;" horiz-adv-x="444" />
<glyph unicode="&#x2006;" horiz-adv-x="296" />
<glyph unicode="&#x2007;" horiz-adv-x="296" />
<glyph unicode="&#x2008;" horiz-adv-x="222" />
<glyph unicode="&#x2009;" horiz-adv-x="355" />
<glyph unicode="&#x200a;" horiz-adv-x="98" />
<glyph unicode="&#x2010;" horiz-adv-x="950" d="M162 514v193h624v-193h-624z" />
<glyph unicode="&#x2011;" horiz-adv-x="950" d="M162 514v193h624v-193h-624z" />
<glyph unicode="&#x2012;" horiz-adv-x="950" d="M162 514v193h624v-193h-624z" />
<glyph unicode="&#x2013;" horiz-adv-x="1146" d="M141 500v192h860v-192h-860z" />
<glyph unicode="&#x2014;" horiz-adv-x="1824" d="M162 500v192h1501v-192h-1501z" />
<glyph unicode="&#x2018;" horiz-adv-x="552" d="M96 1384h215l152 -401h-184z" />
<glyph unicode="&#x2019;" horiz-adv-x="552" d="M96 983l152 401h215l-182 -401h-185z" />
<glyph unicode="&#x201a;" horiz-adv-x="651" d="M147 -229l152 401h215l-182 -401h-185z" />
<glyph unicode="&#x201c;" horiz-adv-x="858" d="M96 1384h215l152 -401h-184zM408 1384h215l151 -401h-184z" />
<glyph unicode="&#x201d;" horiz-adv-x="858" d="M96 983l152 401h215l-182 -401h-185zM408 983l151 401h215l-182 -401h-184z" />
<glyph unicode="&#x201e;" horiz-adv-x="948" d="M147 -229l152 401h215l-182 -401h-185zM459 -229l151 401h215l-182 -401h-184z" />
<glyph unicode="&#x2022;" horiz-adv-x="890" d="M172 661.5q0 112.5 80 192.5t194 80q113 0 192 -80t79 -192.5t-79 -192.5t-192 -80q-115 0 -194.5 80t-79.5 192.5z" />
<glyph unicode="&#x2026;" horiz-adv-x="1726" d="M219 0v227h240v-227h-240zM743 0v227h240v-227h-240zM1266 0v227h239v-227h-239z" />
<glyph unicode="&#x202f;" horiz-adv-x="355" />
<glyph unicode="&#x2039;" horiz-adv-x="770" d="M63 522l347 389h286l-372 -389l372 -391h-286z" />
<glyph unicode="&#x203a;" horiz-adv-x="815" d="M111 131l372 389l-372 391h286l346 -391l-346 -389h-286z" />
<glyph unicode="&#x205f;" horiz-adv-x="444" />
<glyph unicode="&#x20ac;" d="M102 412v178h162q-4 57 -4 94t4 94h-162v178h191q115 428 604 428q209 0 414 -81v-230q-194 90 -391 90q-137 0 -231.5 -43t-141.5 -164h530v-178h-567q-4 -57 -4 -94t4 -94h567v-178h-530q47 -121 141 -164t232 -43q197 0 391 90v-229q-205 -82 -414 -82 q-492 0 -604 428h-191z" />
<glyph unicode="&#x2122;" horiz-adv-x="1572" d="M100 1245v121h559v-121h-219v-561h-121v561h-219zM762 684v682h137l197 -285l196 285h138v-682h-123v506l-211 -303l-211 303v-506h-123z" />
<glyph unicode="&#xe000;" horiz-adv-x="1020" d="M0 0v1020h1020v-1020h-1020z" />
<glyph unicode="&#xfb01;" horiz-adv-x="1333" d="M82 811v211h174q2 424 381 424q49 0 100 -10v-193q-37 4 -55 4q-96 0 -138 -46t-42 -179h235v-211h-235v-811h-246v811h-174zM950 1161h252v225h-252v-225zM954 0h246v1022h-246v-1022z" />
<glyph unicode="&#xfb02;" horiz-adv-x="1333" d="M82 811v211h174q2 424 381 424q49 0 100 -10v-193q-37 4 -55 4q-96 0 -138 -46t-42 -179h235v-211h-235v-811h-246v811h-174zM958 0h246v1411h-246v-1411z" />
<glyph unicode="&#xfb03;" horiz-adv-x="2100" d="M82 811v211h174q2 424 381 424q49 0 100 -10v-193q-37 4 -55 4q-96 0 -138 -46t-42 -179h235v-211h-235v-811h-246v811h-174zM813 811v211h174q2 424 381 424q49 0 100 -10v-193q-37 4 -55 4q-96 0 -138 -46t-42 -179h235v-211h-235v-811h-246v811h-174zM1655 1161v225 h251v-225h-251zM1659 0v1022h245v-1022h-245z" />
<glyph unicode="&#xfb04;" horiz-adv-x="2121" d="M82 811v211h174q2 424 381 424q49 0 100 -10v-193q-37 4 -55 4q-96 0 -138 -46t-42 -179h235v-211h-235v-811h-246v811h-174zM813 811v211h174q2 424 381 424q49 0 100 -10v-193q-37 4 -55 4q-96 0 -138 -46t-42 -179h235v-211h-235v-811h-246v811h-174zM1669 0v1411h246 v-1411h-246z" />
</font>
</defs>
</svg>
