<?xml version="1.0" standalone="no"?>
<!DOCTYPE svg PUBLIC "-//W3C//DTD SVG 1.1//EN" "http://www.w3.org/Graphics/SVG/1.1/DTD/svg11.dtd" >
<svg xmlns="http://www.w3.org/2000/svg">
<metadata>Generated by IcoMoon</metadata>
<defs>
<font id="icomoon" horiz-adv-x="512">
<font-face units-per-em="512" ascent="480" descent="-32" />
<missing-glyph horiz-adv-x="512" />
<glyph unicode="&#x20;" d="" horiz-adv-x="256" />
<glyph unicode="&#xe000;" d="M448 352h-95.008c0 0-0.992 1.904-0.992 24s-17.904 40-40 40h-128c-22.096 0-40-17.904-40-40s0.992-24 0.992-24h-96.992c-17.664 0-32-14.336-32-32v-256c0-17.664 14.336-32 32-32h400c17.664 0 32 14.336 32 32v256c0 17.664-14.336 32-32 32zM248.72 96.432c-53.024 0-96 42.976-96 96 0 53.008 42.976 96 96 96 53.008 0 96-42.976 96-96 0-53.024-42.992-96-96-96z" />
<glyph unicode="&#xe001;" d="M400 337.312h-288.72l0.288 31.072h23.056l48.832 48.112h146.368l47.824-48.112h23.056l-0.704-31.072zM280.704 384.416h-48.128v-16.032h48.128v16.032zM378.496 256.096h-243.936l-6.24 64.16h256.64l-6.464-64.16zM371.92 112.752h-231.584l-12.016 127.312h256.64l-13.040-127.312zM355.888 31.536c0-8.848-7.184-16.032-16.048-16.032h-167.408c-8.864 0-16.048 7.184-16.048 16.032l-6.336 65.168h212.384l-6.544-65.168z" />
<glyph unicode="&#xe002;" d="M479.744 231.232c-6.048 58.224-65.008 57.888-95.632 56.848 0.144 8.848 0.24 15.984 0.24 15.984l-352.432 0.112c0 0 0-48.224 0-49.424 0-68.496 39.12-127.744 96.176-156.944v-17.088h160.304v17.088c16 8.192 30.352 18.944 43.056 31.376 78.64 18.816 161.12 45.968 148.288 102.048zM356 158.944c17.968 27.6 28.576 60.4 28.576 95.808 0-0.272 0.016 0.464 0.032 1.856 28.56 0.944 60.080 3.792 67.216-24.64 7.168-31.28-45.072-56.752-95.824-73.024zM141.28 368.16c0-16-26.24-33.040-26.24-33.040s51.424 9.184 51.424 33.184-50.992 8-50.992 26 25.232 35.040 25.232 35.040-48.4-10.192-48.4-35.184 48.976-10 48.976-26zM221.28 352.16c0-16-26.24-33.040-26.24-33.040s51.424 9.184 51.424 33.184-50.992 8-50.992 26 25.232 35.040 25.232 35.040-48.416-10.192-48.416-35.184 48.992-10 48.992-26zM285.28 368.16c0-16-26.24-33.040-26.24-33.040s51.424 9.184 51.424 33.184-50.992 8-50.992 26 25.232 35.040 25.232 35.040-48.416-10.192-48.416-35.184 48.992-10 48.992-26zM30.928 65.152c0-22.096 78.8-40 176-40s176 17.904 176 40c0-0.464-352-0.464-352 0z" />
<glyph unicode="&#xe003;" d="M248 424c-114.88 0-208-93.12-208-208s93.12-208 208-208c114.88 0 208 93.12 208 208s-93.12 208-208 208zM352 210c0-8.848-7.168-16-16-16h-176c-8.848 0-16 7.152-16 16v16c0 8.832 7.152 16 16 16h176c8.832 0 16-7.168 16-16v-16z" />
<glyph unicode="&#xe004;" d="M256 432c-114.88 0-208-93.12-208-208s93.12-208 208-208 208 93.12 208 208-93.12 208-208 208zM256 64c-88.352 0-160 71.648-160 160 0 88.368 71.648 160 160 160 88.368 0 160-71.632 160-160 0-88.352-71.632-160-160-160zM315.808 240h-128c-8.848 0-16-7.168-16-16 0-8.848 7.152-16 16-16h128c8.848 0 16 7.152 16 16 0 8.832-7.152 16-16 16z" />
<glyph unicode="&#xe005;" d="M256 16c-114.88 0-208 93.12-208 208s93.12 208 208 208 208-93.12 208-208-93.12-208-208-208zM256 384c-88.352 0-160-71.632-160-160 0-88.352 71.648-160 160-160 88.368 0 160 71.648 160 160 0 88.368-71.632 160-160 160zM319.808 208h-48v-48c0-8.848-7.168-16-16-16-8.848 0-16 7.152-16 16v48h-48c-8.848 0-16 7.168-16 16s7.152 16 16 16h48v48c0 8.848 7.152 16 16 16 8.832 0 16-7.152 16-16v-48h48c8.832 0 16-7.168 16-16s-7.168-16-16-16z" />
<glyph unicode="&#xe006;" d="M248 8c-114.88 0-208 93.12-208 208s93.12 208 208 208 208-93.12 208-208-93.12-208-208-208zM351.008 224.992c0 8.832-7.168 16-16 16h-64v64c0 8.832-7.152 16-16 16h-16c-8.848 0-16-7.168-16-16v-64h-64c-8.848 0-16-7.168-16-16v-16c0-8.848 7.152-16 16-16h64v-64c0-8.848 7.152-16 16-16h16c8.848 0 16 7.152 16 16v64h64c8.832 0 16 7.152 16 16v16z" />
<glyph unicode="&#xe007;" d="M256 16c-114.88 0-208 93.12-208 208s93.12 208 208 208 208-93.12 208-208-93.12-208-208-208zM256 384c-88.352 0-160-71.648-160-160s71.648-160 160-160c88.368 0 160 71.648 160 160s-71.632 160-160 160zM328.592 167.44l-16.224-16.224c-2.976-2.976-7.808-2.976-10.8 0l-45.92 45.92-45.92-45.92c-2.992-2.976-7.808-2.976-10.8 0l-16.224 16.224c-2.976 2.976-2.976 7.808 0 10.8l45.936 45.904-45.936 45.92c-2.976 2.992-2.976 7.824 0 10.816l16.224 16.208c2.992 2.992 7.808 2.992 10.8 0l45.92-45.92 45.92 45.92c2.992 2.992 7.824 2.992 10.8 0l16.224-16.208c2.976-2.992 2.976-7.824 0-10.816l-45.936-45.92 45.936-45.904c2.976-2.992 2.976-7.84 0-10.8z" />
<glyph unicode="&#xe008;" d="M256 16c-114.88 0-208 93.12-208 208s93.12 208 208 208 208-93.12 208-208-93.12-208-208-208zM351.376 284.656c3.904 3.904 3.904 10.256 0 14.16l-21.248 21.232c-3.904 3.904-10.256 3.904-14.16 0l-60.176-60.176-60.176 60.176c-3.904 3.904-10.256 3.904-14.16 0l-21.248-21.232c-3.904-3.904-3.904-10.256 0-14.16l60.192-60.192-60.192-60.16c-3.904-3.904-3.904-10.256 0-14.16l21.248-21.248c3.904-3.904 10.256-3.904 14.16 0l60.176 60.192 60.176-60.192c3.904-3.904 10.256-3.904 14.16 0l21.248 21.248c3.904 3.904 3.904 10.256 0 14.16l-60.192 60.16 60.192 60.192z" />
<glyph unicode="&#xe009;" d="M349.12 271.52l-16.032 16.032c-2.96 2.96-7.744 2.96-10.688 0l-96.224-96.208-45.744 46.112c-2.976 2.96-7.744 2.96-10.72 0l-16.032-16.048c-2.96-2.96-2.96-7.744 0-10.688l67.088-67.568c2.96-2.944 7.744-2.944 10.688 0l117.664 117.664c2.976 2.96 2.976 7.744 0 10.704zM256 432c-114.88 0-208-93.12-208-208s93.12-208 208-208 208 93.12 208 208-93.12 208-208 208zM256 64c-88.352 0-160 71.648-160 160 0 88.368 71.648 160 160 160 88.368 0 160-71.632 160-160 0-88.352-71.632-160-160-160z" />
<glyph unicode="&#xe00a;" d="M256 432c-114.88 0-208-93.12-208-208s93.12-208 208-208 208 93.12 208 208-93.12 208-208 208zM372.128 283.088l-151.776-151.76c-3.808-3.792-9.968-3.792-13.776 0l-3.056 3.056-0.016-0.016-83.504 84.096c-3.808 3.808-3.808 9.984 0 13.792l20.704 20.688c3.808 3.808 9.984 3.808 13.792 0l59.024-59.456 124.096 124.096c3.808 3.808 9.984 3.808 13.792 0l20.704-20.704c3.824-3.792 3.824-9.968 0.016-13.792z" />
<glyph unicode="&#xe00b;" d="M248 424c-114.88 0-208-93.12-208-208s93.12-208 208-208 208 93.12 208 208-93.12 208-208 208zM248 98c-13.264 0-24 10.752-24 24s10.736 24 24 24c13.248 0 24-10.752 24-24s-10.752-24-24-24zM272 202c0-13.248-10.752-24-24-24-13.264 0-24 10.752-24 24v112c0 13.264 10.736 24 24 24 13.248 0 24-10.736 24-24v-112z" />
<glyph unicode="&#xe00c;" d="M248 432c-119.296 0-216-96.704-216-216s96.704-216 216-216 216 96.704 216 216-96.704 216-216 216zM248 48c-92.784 0-168 75.216-168 168s75.216 168 168 168 168-75.216 168-168-75.216-168-168-168zM248 320c-13.248 0-24-10.736-24-24v-80.992c0-13.248 10.752-24 24-24s24 10.752 24 24v80.992c0 13.264-10.752 24-24 24zM248 160c-13.248 0-24-10.752-24-24s10.752-24 24-24 24 10.752 24 24-10.752 24-24 24z" />
<glyph unicode="&#xe00d;" d="M415.92 174.912h-21.184c-3.44-12.464-8.368-24.288-14.688-35.248l19.584-19.568c12.528-12.528 12.528-32.848 0-45.376l-11.344-11.344c-12.528-12.528-32.848-12.528-45.376 0l-19.712 19.696c-10.928-6.224-22.704-11.072-35.104-14.448v-20.544c0-17.712-14.352-32.080-32.080-32.080h-16.032c-17.712 0-32.096 14.352-32.096 32.080v20.544c-12.384 3.376-24.176 8.24-35.104 14.448l-19.696-19.696c-12.512-12.528-32.832-12.528-45.36 0l-11.36 11.344c-12.528 12.528-12.528 32.848 0 45.376l19.584 19.568c-6.32 10.976-11.248 22.784-14.704 35.248h-21.168c-17.728 0-32.080 14.352-32.080 32.064v16.048c0 17.712 14.352 32.080 32.080 32.080h20.928c3.312 12.336 8.048 24.080 14.192 34.976l-18.832 18.816c-12.528 12.528-12.528 32.848 0 45.376l11.344 11.328c12.528 12.528 32.848 12.528 45.36 0l18.448-18.448c11.296 6.576 23.488 11.696 36.352 15.2v21.568c0.016 17.728 14.4 32.080 32.112 32.080h16.032c17.712 0 32.080-14.352 32.080-32.080v-21.552c12.896-3.52 25.072-8.64 36.352-15.216l18.448 18.448c12.528 12.528 32.848 12.528 45.376 0l11.344-11.328c12.528-12.528 12.528-32.848 0-45.376l-18.816-18.816c6.144-10.896 10.88-22.64 14.208-34.992h20.928c17.712 0 32.080-14.368 32.080-32.080v-16.048c-0.016-17.696-14.368-32.048-32.096-32.048zM248 302.72c-48.72 0-88.224-39.504-88.224-88.224s39.504-88.224 88.224-88.224 88.224 39.504 88.224 88.224-39.504 88.224-88.224 88.224zM248 175.408c-22.144 0-40.112 17.936-40.112 40.096 0 22.144 17.968 40.096 40.112 40.096s40.096-17.952 40.096-40.096c0-22.16-17.952-40.096-40.096-40.096z" />
<glyph unicode="&#xe00e;" d="M425.168 248h30.832v-48h-30.832c-2.096-15.296-5.984-30.016-11.744-43.792l26.704-15.424-24-41.568-27.168 15.68c-9.328-11.776-20.16-22.272-32.176-31.328l16-27.696-41.568-24-16.336 28.272c-13.584-5.296-27.92-8.992-42.896-10.768v-33.376h-48v34.288c-14.592 2.256-28.656 6.096-41.824 11.696l-17.392-30.112-41.568 24 17.808 30.848c-11.152 8.944-21.104 19.248-29.792 30.608l-31.376-18.112-24 41.568 31.664 18.288c-5.136 12.976-8.736 26.688-10.688 40.944h-36.816v48h36.832c1.952 14.272 5.552 27.984 10.688 40.944l-31.664 18.288 24 41.568 31.376-18.112c8.688 11.36 18.64 21.664 29.792 30.624l-17.808 30.8 41.568 24 17.392-30.112c13.168 5.6 27.232 9.456 41.824 11.696v34.288h48v-33.36c14.976-1.776 29.312-5.472 42.896-10.768l16.336 28.272 41.568-24-16-27.712c12.016-9.056 22.848-19.552 32.176-31.328l27.168 15.68 24-41.568-26.704-15.424c5.744-13.776 9.632-28.496 11.728-43.792zM247.856 328.144c-57.44 0-104-46.56-104-104s46.56-104 104-104 104 46.56 104 104-46.56 104-104 104zM248 184c-22.096 0-40 17.904-40 40s17.904 40 40 40 40-17.904 40-40-17.904-40-40-40z" />
<glyph unicode="&#xe00f;" d="M432 16h-368c-17.68 0-32 14.336-32 32v192c0 0 83.536-42.96 160-60.544v-19.456c0-8.848 7.152-16 16-16h80c8.832 0 16 7.152 16 16v19.456c76.448 17.584 160 60.544 160 60.544v-192c0-17.664-14.336-32-32-32zM272 208c8.832 0 16-7.152 16-16v-16c0-8.848-7.168-16-16-16h-48c-8.848 0-16 7.152-16 16v16c0 8.848 7.152 16 16 16h48zM304 208c0 8.848-7.168 16-16 16h-80c-8.848 0-16-7.152-16-16v-14.336c-76.464 18.112-160 62.336-160 62.336v64c0 17.664 14.32 32 32 32h96v32c0 17.664 14.336 32 32 32h112c17.664 0 32-14.336 32-32v-32h96c17.664 0 32-14.336 32-32v-64c0 0-83.552-44.224-160-62.336v14.336zM304 368c0 8.848-7.168 16-16 16h-80c-8.848 0-16-7.152-16-16 0-8.832 0-16 0-16h112c0 0 0 7.168 0 16z" />
<glyph unicode="&#xe010;" d="M448 16h-384c-17.664 0-32 14.336-32 32v144h64v-48h64v48h192v-48h64v48h64v-144c0-17.664-14.336-32-32-32zM368 160v64h32v-64h-32zM112 160v64h32v-64h-32zM416 240h-64v-32h-192v32h-64v-32h-64v112c0 17.664 14.336 32 32 32h384c17.664 0 32-14.336 32-32v-112h-64v32zM304 400.336h-96v-32.336h-32v15.664h16v48.336h128.336v-48h15.664v-16h-32v32.336z" />
<glyph unicode="&#xe011;" d="M313.136 306.288l-50.304-75.712-36.56 36.848-36.576-59.152-27.424 27.152-29.696-59.424h233.152l-52.592 130.288zM64 400v-368h368v368h-368zM400 144h-304v224h304v-224zM167.856 270.864c13.264 0 24 10.736 24 24s-10.736 24-24 24c-13.248 0-24-10.736-24-24s10.752-24 24-24z" />
<glyph unicode="&#xe012;" d="M313.392 223.984l97.536-97.536c6.336-6.336 6.336-16.624 0-22.96l-34.416-34.416c-6.336-6.336-16.608-6.336-22.96 0l-97.552 97.536-97.552-97.536c-6.336-6.336-16.608-6.336-22.944 0l-34.432 34.416c-6.336 6.336-6.336 16.608 0 22.96l97.552 97.536-97.552 97.552c-6.336 6.336-6.336 16.624 0 22.96l34.448 34.416c6.336 6.336 16.608 6.336 22.944 0l97.536-97.552 97.552 97.552c6.336 6.336 16.608 6.336 22.96 0l34.416-34.432c6.336-6.336 6.336-16.608 0-22.96l-97.536-97.536z" />
<glyph unicode="&#xe013;" d="M463.968 343.504l-34.144 34.144c-6.304 6.288-16.48 6.288-22.768 0l-204.72-204.72-97.376 98.080c-6.288 6.288-16.464 6.288-22.768 0l-34.144-34.144c-6.288-6.304-6.288-16.48 0-22.768l142.784-143.744c6.288-6.288 16.48-6.288 22.768 0l250.368 250.384c6.288 6.272 6.288 16.48 0 22.768z" />
<glyph unicode="&#xe014;" d="M288 128c-17.664 0-32 14.336-32 32v32c0 17.68 14.336 32 32 32h192v-96h-192zM312 198.672c-13.248 0-24-10.752-24-24 0-13.264 10.752-24 24-24 13.264 0 24 10.736 24 24 0 13.248-10.736 24-24 24zM240 192v-32c0-26.496 21.504-48 48-48h160v-64c0-26.496-21.488-48-48-48h-336c-26.496 0-48 21.504-48 48v304c0 26.512 21.504 48 48 48h154.112l-37.584-15.664h-124.512c-13.248 0-24-10.752-24-24 0-13.264 10.752-24 24-24h391.984v-96.336h-160c-26.496 0-48-21.488-48-48zM80.016 304h-32v-32h16v16h16v16zM80.016 256h-32v-32h16.656l-0.656 16 16-0.336v16.336zM80.016 208h-32v-32h16.336l-0.336 16h16v16zM80.016 160h-32v-32h16.336l-0.336 16 16-0.336v16.336zM80.016 112h-32v-32h16v16h16v16zM80.016 64h-32v-32h16.336l-0.336 15.664h16v16.336zM144.016 352.992l188 79.008 36-79.008h-224zM362.336 400h37.664c14.016 0 26.496-6.096 35.28-15.664h-65.296l-7.648 15.664z" />
<glyph unicode="&#xe015;" d="M256 424c-114.896 0-208-93.12-208-208s93.104-208 208-208c114.864 0 208 93.12 208 208s-93.12 208-208 208zM254.32 47.568c-92.784 0-168 75.216-168 168s75.216 168 168 168c92.768 0 168-75.216 168-168 0-92.784-75.232-168-168-168zM302.88 205.904h-47.68v80.512c0 8.736-7.088 15.84-15.824 15.84-8.752 0-15.84-7.088-15.84-15.84v-96.336c0-8.752 7.088-15.824 15.84-15.824h63.504c8.752 0 15.84 7.072 15.84 15.824 0 8.736-7.088 15.824-15.84 15.824z" />
<glyph unicode="&#xe016;" d="M0 256v48h60l120.496 120.512c-0.8 2.384-1.488 4.816-1.488 7.488 0 13.264 10.736 24 24 24 13.248 0 24-10.736 24-24 0-13.248-10.752-24-24-24-1.776 0-3.344 0.656-4.992 1.008l-105.024-105.008h309.664l-104.4 105.264c-2.064-0.576-4.032-1.264-6.256-1.264-13.248 0-24 10.752-24 24 0 13.264 10.752 24 24 24s24-10.736 24-24c0-2.448-0.72-4.688-1.408-6.928l121.072-121.072h60.336v-48h-496zM397.904 17.568c-4.688-18.752-17.68-17.712-17.68-17.712l-265.52-0.512c-13.536 0-17.168 17.152-17.168 17.152l-70.192 223.28 441.184 0.416-70.624-222.624zM159.984 208h-16v-80h16v80zM159.984 112h-16v-80h16v80zM191.984 208h-15.984v-80h15.984v80zM191.984 112h-15.984v-80h15.984v80zM223.984 208h-16v-80h16v80zM223.984 112h-16v-80h16v80zM256 208h-16v-80h16v80zM256 112h-16v-80h16v80zM288 208h-16v-80h16v80zM288 112h-16v-80h16v80zM320 208h-16v-80h16v80zM320 112h-16v-80h16v80zM352 208h-16v-80h16v80zM352 112h-16v-80h16v80z" />
<glyph unicode="&#xe017;" d="M128 64c0-26.496 21.488-48 48-48h160c26.496 0 48 21.504 48 48l32 256h-320l32-256zM304 272h32v-208h-32v208zM240 272h32v-208h-32v208zM176 272h32v-208h-32v208zM408 384h-104c0 0-7.168 32-16 32h-64c-8.848 0-16-32-16-32h-104c-13.264 0-24-10.736-24-24s0-24 0-24h352c0 0 0 10.736 0 24s-10.752 24-24 24z" />
<glyph unicode="&#xe018;" d="M448-16h-384c-26.512 0-48 21.504-48 48v224c0 26.512 21.488 48 48 48h32l135.888 104.288c-0.608 2.48-1.024 5.040-1.024 7.712 0 17.664 14.336 32 32 32s31.984-14.336 31.984-32c0-5.744-1.632-11.072-4.304-15.744l125.456-96.256h32c26.496 0 48-21.488 48-48v-224c0-26.496-21.504-48-48-48zM273.136 86.672h64.496v12.128h-50.88v91.008h-13.632v-103.136zM180.848 86.672l11.296 31.248h43.328l11.872-31.248h15.552l-42.048 103.12h-14.784l-39.648-103.12h14.432zM85.472 177.696c-2.944-4.544-4.416-9.424-4.416-14.624 0-4.752 1.2-9.024 3.616-12.864s6.080-7.024 10.992-9.632c3.776-2.016 10.384-4.16 19.824-6.432s15.536-3.952 18.304-5.024c4.304-1.664 7.392-3.664 9.296-6.080s2.864-5.216 2.864-8.448c0-3.168-0.976-6.128-2.912-8.832s-4.896-4.832-8.88-6.384c-3.968-1.568-8.544-2.336-13.728-2.336-5.84 0-11.088 1.008-15.76 3.072-4.688 2.032-8.128 4.72-10.336 8.048s-3.648 7.584-4.256 12.752l-12.88-1.12c0.192-6.896 2.080-13.056 5.664-18.512 3.584-5.472 8.512-9.568 14.8-12.288 6.304-2.72 14.096-4.080 23.408-4.080 7.328 0 13.936 1.344 19.808 4.048 5.872 2.688 10.368 6.432 13.504 11.296 3.136 4.848 4.704 10 4.704 15.488 0 5.52-1.44 10.384-4.304 14.624-2.864 4.256-7.296 7.744-13.312 10.496-4.144 1.872-11.728 4.064-22.768 6.56-11.056 2.512-17.888 4.976-20.496 7.376-2.672 2.368-4 5.424-4 9.12 0 4.288 1.888 7.92 5.648 10.944 3.76 3.024 9.744 4.544 17.968 4.544 7.904 0 13.872-1.664 17.904-4.96 4.048-3.312 6.4-8.208 7.104-14.672l13.12 0.992c-0.24 6.048-1.92 11.456-5.040 16.224-3.136 4.768-7.616 8.384-13.44 10.848s-12.544 3.68-20.176 3.68c-6.928 0-13.216-1.168-18.88-3.52-5.696-2.336-10-5.76-12.944-10.304zM282.848 391.2c-5.504-4.432-12.384-7.2-19.984-7.2-10.592 0-19.904 5.2-25.728 13.136l-125.136-93.136h288l-117.152 87.2zM430.976 98.8h-63.248v35.12h56.992v12.128h-56.992v31.632h60.88v12.128h-74.496v-103.12h76.88v12.112zM213.024 179.040c1.664-5.648 4.096-12.8 7.312-21.488l10.864-28.512h-35.184l11.44 30.192c2.352 6.512 4.208 13.12 5.568 19.808z" />
<glyph unicode="&#xe019;" d="M416-32h-336c-17.68 0-32 14.336-32 32v384c0 17.68 14.32 32 32 32v-384c0-17.664 14.336-32 32-32h64c17.68 0 32 14.336 32 32v384h208c17.68 0 32-14.336 32-32v-384c0-17.664-14.32-32-32-32zM336 16h32v32h-32v-32zM336 64h32v32h-32v-32zM336 112h32v32h-32v-32zM336 160h32v32h-32v-32zM288 16h32v32h-32v-32zM288 64h32v32h-32v-32zM288 112h32v32h-32v-32zM288 160h32v32h-32v-32zM416 368c0 8.848-7.152 16-16 16h-144c-8.832 0-16-7.152-16-16v-64c0-8.832 7.168-16 16-16h144c8.848 0 16 7.168 16 16v64zM416 192h-32v-32h32v32zM416 144h-32v-32h32v32zM416 96h-32v-32h32v32zM416 48h-32v-32h32v32zM176 16h-64c-8.832 0-16 7.152-16 16v400c0 8.848 7.168 16 16 16h31.008v32h16.992v-32h16c8.832 0 16-7.152 16-16v-400c0-8.848-7.168-16-16-16z" />
<glyph unicode="&#xe01a;" d="M245.296 163.84c-0.416 0.288-48.544 81.2-48.704 82.24-9.952 21.744-17.984 43.984-1.248 53.856l-69.456 117.12c-18-13.456-68.912-86.48 26.384-251.968 100.384-174.4 195.92-167.152 215.072-155.344l-67.68 114.32c-16-9.408-29.472 6.096-54.368 39.776zM413.792 54.128l0.016 0.096c0 0-52.848 89.056-52.88 89.088-4.192 7.056-13.2 9.28-20.224 5.184l-32.384-19.152 67.872-114.656c0 0 32.384 19.056 32.368 19.12h0.064c7.44 4.416 9.152 13.536 5.168 20.32zM236.576 324.224v0.064c7.44 4.4 9.184 13.52 5.2 20.24l0.032 0.096c0 0-54.368 91.664-54.4 91.68-4.176 7.088-13.216 9.28-20.208 5.184l-32.384-19.152 69.376-117.184c0 0 32.368 19.024 32.384 19.072z" />
<glyph unicode="&#xe01b;" d="M64-16v256h48v80c0 70.688 57.296 128 128 128h16c70.688 0 128-57.312 128-128v-80h48v-256h-368zM235.904 115.408l-11.904-83.408h48l-11.92 83.408c11.664 4.768 19.92 16.208 19.92 29.6 0 17.664-14.336 32-32 32-17.68 0-32-14.336-32-32 0-13.392 8.24-24.832 19.904-29.6zM336 312c0 48.608-39.408 88-88 88-48.608 0-88-39.392-88-88v-72h176v72z" />
<glyph unicode="&#xe01c;" d="M466.496 0.624l-11.344-11.344c-12.56-12.544-32.88-12.544-45.408 0l-90.816 90.784c-10.496 10.528-11.664 26.304-4.496 38.592l-49.664 49.632c-26.704-19.808-59.648-31.664-95.44-31.664-88.64 0-160.496 71.856-160.496 160.496 0 88.656 71.856 160.512 160.496 160.512 88.656 0 160.496-71.856 160.496-160.512 0-41.264-15.68-78.768-41.28-107.2l48.56-48.56c12.288 7.152 28.064 6 38.56-4.528l90.816-90.784c12.544-12.56 12.544-32.896 0.016-45.424zM289.408 297.776c0 66.48-53.904 120.368-120.384 120.368s-120.384-53.872-120.384-120.368 53.888-120.368 120.368-120.368 120.4 53.888 120.4 120.368zM176.032 256.656h-16.048v31.088h-32.096v16.048h32.096v32.112h16.048v-32.112h32.112v-16.048h-32.112v-31.088z" />
<glyph unicode="&#xe01d;" d="M466.496 0.624l-11.344-11.344c-12.56-12.544-32.88-12.544-45.408 0l-90.816 90.784c-10.496 10.528-11.664 26.304-4.496 38.592l-49.664 49.632c-26.704-19.808-59.648-31.664-95.44-31.664-88.64 0-160.496 71.856-160.496 160.496 0 88.656 71.856 160.512 160.496 160.512 88.656 0 160.496-71.856 160.496-160.512 0-41.264-15.68-78.768-41.28-107.2l48.56-48.56c12.288 7.152 28.064 6 38.56-4.528l90.816-90.784c12.544-12.56 12.544-32.896 0.016-45.424zM289.408 297.776c0 66.48-53.904 120.368-120.384 120.368s-120.384-53.872-120.384-120.368 53.888-120.368 120.368-120.368 120.4 53.888 120.4 120.368z" />
<glyph unicode="&#xe01e;" d="M429.44 210.816c0 0-17.904 29.328-37.808 29.328-19.872 0-40.752-30.32-40.752-30.32s-21.872 30.288-39.776 30.288c-15.152 0-32.992-20.832-38.16-27.264v-115.84c0-11.6-1.184-21.408-3.568-29.504-2.368-8.064-5.888-14.624-10.544-19.68-4.64-5.056-10.432-8.752-17.376-11.024-6.928-2.288-14.96-3.408-24.080-3.408-8.304 0-15.728 1.248-22.304 3.744-6.576 2.528-12.112 6.096-16.624 10.752s-7.984 10.256-10.4 16.848c-2.4 6.56-3.632 13.904-3.632 22v11.184h31.68c0-10.496-0.080-24.256 3.744-29.6 3.824-5.312 9.664-8 17.52-8 5.296 0 12.864 2.624 12.864 2.624s5.792 4.16 7.536 7.312c1.728 3.12 3.488 11.344 3.488 11.344s0.896 9.28 0.896 14.592v118.496c-7.088 8.016-24.48 25.952-38.416 25.952-17.888 0-42.752-29.824-42.752-29.824s-23.856 29.824-39.776 29.824c-15.904 0-38.768-29.824-38.768-29.824s-6.976 156.096 151.12 172l22.88 31.808 21.888-31.808c163.024-9.936 151.12-172 151.12-172z" />
<glyph unicode="&#xe01f;" d="M258.080 451.504c-85.936 0-131.040-67.776-131.040-129.44 0-69.184 64.384-112.688 64.384-225.824h65.2c0 0 61.232-0.288 63.088-0.288 1.856 113.968 65.248 158.8 65.248 226.656 0.016 57.904-40.944 128.896-126.88 128.896zM311.584 79.504h-112c-4.416 0-8-3.584-8-8s3.584-8 8-8h112c4.4 0 8 3.584 8 8s-3.6 8-8 8zM311.584 47.504h-112c-4.416 0-8-3.584-8-8s3.584-8 8-8h112c4.4 0 8 3.584 8 8s-3.6 8-8 8zM207.584 15.504c0 0 0-7.152 0-16 0-8.832 7.152-16 16-16h64.224c8.848 0 16 7.168 16 16 0 8.848 0 16 0 16h-96.224z" />
<glyph unicode="&#xe020;" d="M224.272 331.168h62.944v23.616h-62.944v-23.616zM286.752 323.312h-62.48c0 0-102.8-101.328-102.8-200.672 0-105.264 107.712-113.632 107.712-113.632s32.128-5.328 52.112 0c0 0 109.216 12.8 109.216 113.12 0.016 100.352-103.76 201.184-103.76 201.184zM291.376 110.032c-2.528-5.12-5.936-9.408-10.288-12.832-4.336-3.44-9.408-6.016-15.184-7.744-0.736-0.224-1.536-0.304-2.288-0.496v-17.472h-15.728v15.424c-0.192-0.016-0.384-0.048-0.576-0.048-4.464 0-8.608 0.352-12.448 1.072-3.824 0.736-7.2 1.616-10.144 2.624-2.944 1.024-5.392 2.096-7.344 3.216-1.968 1.12-3.392 2.112-4.256 2.976-0.88 0.864-1.488 2.112-1.856 3.744-0.352 1.648-0.544 3.984-0.544 7.056 0 2.064 0.064 3.792 0.208 5.2s0.336 2.528 0.656 3.408c0.304 0.88 0.688 1.488 1.184 1.856 0.496 0.352 1.088 0.544 1.744 0.544 0.944 0 2.256-0.544 3.952-1.648 1.696-1.104 3.872-2.32 6.544-3.648 2.672-1.344 5.84-2.544 9.552-3.664 3.696-1.088 7.984-1.648 12.848-1.648 3.2 0 6.064 0.384 8.592 1.152s4.688 1.84 6.448 3.248c1.776 1.408 3.12 3.136 4.048 5.2 0.944 2.080 1.408 4.368 1.408 6.928 0 2.928-0.816 5.44-2.4 7.552-1.6 2.096-3.696 3.952-6.256 5.6-2.56 1.632-5.472 3.152-8.736 4.592s-6.64 2.96-10.096 4.544c-3.472 1.6-6.832 3.408-10.096 5.456-3.264 2.032-6.192 4.448-8.752 7.28s-4.64 6.192-6.256 10.048c-1.6 3.856-2.384 8.496-2.384 13.888 0 6.208 1.152 11.648 3.44 16.336 2.304 4.688 5.408 8.592 9.296 11.68 3.904 3.088 8.496 5.408 13.792 6.944 2.72 0.784 5.536 1.36 8.416 1.728v16.56h15.728v-16.544c0.64-0.080 1.264-0.048 1.888-0.144 3.056-0.464 5.936-1.088 8.592-1.888 2.656-0.784 5.024-1.68 7.088-2.672s3.44-1.808 4.096-2.48c0.688-0.656 1.12-1.216 1.376-1.68 0.224-0.464 0.4-1.088 0.592-1.856 0.16-0.768 0.288-1.728 0.336-2.912 0.064-1.152 0.096-2.608 0.096-4.336 0-1.936-0.064-3.584-0.16-4.928-0.096-1.328-0.256-2.432-0.496-3.296-0.224-0.88-0.56-1.504-0.992-1.904s-0.992-0.592-1.744-0.592c-0.72 0-1.904 0.448-3.504 1.376-1.6 0.944-3.568 1.936-5.872 3.024-2.336 1.088-5.024 2.080-8.096 2.992-3.088 0.896-6.448 1.328-10.096 1.328-2.88 0-5.376-0.336-7.504-1.040-2.144-0.688-3.92-1.664-5.36-2.88-1.424-1.232-2.496-2.72-3.184-4.432-0.704-1.712-1.040-3.552-1.040-5.472 0-2.88 0.784-5.36 2.336-7.456s3.664-3.968 6.304-5.6c2.624-1.648 5.616-3.168 8.96-4.592 3.328-1.44 6.72-2.96 10.192-4.544 3.472-1.616 6.848-3.424 10.192-5.456s6.32-4.464 8.912-7.296 4.688-6.16 6.288-9.984c1.6-3.84 2.4-8.336 2.4-13.552-0.016-6.752-1.296-12.704-3.824-17.84zM286.256 362.656l31.968 78.704c0 0-20.16-16.736-31.968-16.736s-30.512 16.24-30.512 16.24-20.16-16.24-31.968-16.24c-11.792 0-30.992 15.744-30.992 15.744l32.464-77.712h61.008z" />
<glyph unicode="&#xe021;" d="M128 352v-64h256v64h-256zM128 192h256v64h-256v-64zM128 96h256v64h-256v-64z" />
<glyph unicode="&#xe022;" d="M128 288h64v64h-64v-64zM128 192h64v64h-64v-64zM128 96h64v64h-64v-64zM224 352v-64h160v64h-160zM224 192h160v64h-160v-64zM224 96h160v64h-160v-64z" />
<glyph unicode="&#xe023;" d="M128 240h112v112h-112v-112zM272 352v-112h112v112h-112zM272 96h112v112h-112v-112zM128 96h112v112h-112v-112z" />
<glyph unicode="&#xe024;" d="M128 288h64v64h-64v-64zM224 288h64v64h-64v-64zM320 352v-64h64v64h-64zM128 192h64v64h-64v-64zM224 192h64v64h-64v-64zM320 192h64v64h-64v-64zM128 96h64v64h-64v-64zM224 96h64v64h-64v-64zM320 96h64v64h-64v-64z" />
<glyph unicode="&#xe025;" d="M444.528 353.024c15.344-37.008 8.032-81.184-22.064-111.28-33.136-33.136-83.216-38.32-122.144-16.352l-28.144-30.736 20.080-20.16 12 12c6.128 6.144 16.080 6.144 22.208 0l97.312-98.304c6.144-6.128 6.144-16.080 0-22.208l-44.416-44.416c-6.128-6.144-16.080-6.144-22.208 0l-97.312 98.304c-6.144 6.128-6.144 16.080 0 22.208l10.96 10.96-19.136 19.184-134.576-147.024c-12.272-12.272-32.16-12.272-44.416 0l-11.104 11.104c-12.272 12.272-12.272 32.16 0 44.416l153.312 128.4-101.824 102.096-32.16 0.016-37.216 59.84 29.952 30 61.2-37.456 0.4-31.488 103.008-103.408 29.968 25.088c-29.296 39.936-26.24 96.192 9.856 132.288 29.952 29.952 73.888 37.392 110.8 22.336l-65.984-65.072 55.536-55.536 66.112 65.2zM98.4 65.056c-6.128 6.128-16.064 6.128-22.208 0-6.144-6.144-6.144-16.080 0-22.224 6.144-6.128 16.080-6.128 22.208 0 6.144 6.16 6.144 16.096 0 22.224z" />
<glyph unicode="&#xe026;" d="M400.672 181.248v199.792c0 19.744-16 35.776-35.776 35.776h-313.136c-19.76 0.016-35.776-16.016-35.776-35.776v-199.792c0-19.76 16.016-35.776 35.776-35.776h59.664v-82.192l91.264 82.192h162.192c19.792 0 35.792 16.016 35.792 35.776zM460.24 338.272h-44.768c0 0 0-159.552 0-174.544s-19.456-34.272-34.448-34.272-175.12-0.88-175.12-0.88c0-19.76 16.016-31.776 35.776-31.776h68.944l89.952-81.632-0.112 81.632h59.776c19.776 0 35.776 12.016 35.776 31.776v174.912c0 19.744-16 34.784-35.776 34.784z" />
<glyph unicode="&#xe027;" d="M401.995 269.347c0 82.616-90.005 149.588-200.999 149.588-111.007 0.001-200.997-66.972-200.997-149.588 0-49.65 32.503-93.637 82.536-120.845-0.144-0.432-39.86-72.699-39.86-72.699s121.277 46.259 121.613 46.45c11.901-1.648 24.169-2.479 36.709-2.479 110.991 0.001 200.998 66.973 200.998 149.573zM550 222.609c0 82.6-84.727 148.981-176.445 149.572 131.482-130.971-23.369-270.513-149.572-270.513 0 0 14.028-28.632 125.020-28.632 12.524 0 24.809 0.864 36.709 2.495 0.336-0.224 121.629-46.45 121.629-46.45s-39.732 72.251-39.86 72.683c50.016 27.208 82.519 71.211 82.519 120.845z" horiz-adv-x="550" />
<glyph unicode="&#xe028;" d="M385.024 374.672l-60.368-134h-17.568l64.384 142.656h-99.408v-332.336c20.48-0.752 125.008-34.672 125.008-34.672v-16.32h-280.96v17.424c0 0 106.848 33.584 122.944 33.584v332.32h-96.24l64.4-142.656h-17.568l-60.368 134-60.368-134h-17.568l64.768 143.456v16.544h108.064c0 21.648 14.512 39.328 31.44 39.328 17.904 0 31.44-18.688 31.44-39.328h110.048v-14.192l65.856-145.808h-17.568l-60.368 134zM208.32 224.336c0-43.088-29.888-84.512-79.024-84.512-48.032 0-79.024 41.424-79.024 84.512-0.016-0.064 158.048-0.064 158.048 0zM308.192 224.336c0-0.080 158.064-0.080 158.064 0 0-43.088-29.888-84.512-79.024-84.512-48.048 0-79.040 41.424-79.040 84.512z" />
<glyph unicode="&#xe029;" d="M170.896 188.688l-35.344-90.72 89.152 36.912-53.808 53.808zM429.68 382.448l-11.312 11.312c-12.48 12.496-32.752 12.496-45.248 0l-22.624-22.624 56.56-56.576 22.624 22.624c12.512 12.496 12.512 32.768 0 45.264zM172.688 193.312l8.096 8.096 56.56-56.56 158.4 158.4-56.56 56.56 11.312 11.328-177.808-177.824zM368.064 63.936l-272.416-0.096 0.048 272.416 190.736 0.064 29.888 31.68h-236.88c-8.832 0-16-7.152-16-16v-304c0-8.848 7.168-16 16-16h304c8.848 0 16 7.152 16 16v224.928l-32.24-31.632 0.864-177.36z" />
<glyph unicode="&#xe02a;" d="M448 336h-31.328v47.008l-64.672 0.992 0.336-48h-194.336l1.328 48-63.328-0.992v-48l-32 0.992c-17.664 0-32-14.336-32-32v-224c0-17.664 14.336-32 32-32h384c17.664 0 32 14.336 32 32v224c0 17.664-14.336 32-32 32zM368 368h32v-64h-32v64zM160 259.008c19.328 0 35.008-20.592 35.008-46s-15.68-46-35.008-46-35.008 20.592-35.008 46 15.68 46 35.008 46zM112 368h32v-64h-32v64zM90.672 112.832c0 0 3.792 30.432 12.416 36.176 8.608 5.744 33.44 9.568 33.44 9.568s16.096-17.2 22.944-17.2c6.832 0 22.928 17.2 22.928 17.2s24.832-3.808 33.456-9.568c10.128-6.752 12.656-36.176 12.656-36.176h-137.84zM416 128h-144v16h144v-16zM416 160h-144v16h144v-16zM416 192h-144v16h144v-16zM416 224h-144v16h144v-16z" />
<glyph unicode="&#xe02b;" d="M368 303.504c0 8.848-7.168 16-16 16h-48c0 0 0.528 19.264 0.528 47.264 0 26-21.536 49.728-48.528 49.728s-47.808-22.576-47.808-49.584c0-26-0.192-47.424-0.192-47.424h-48c-8.848 0-16-7.152-16-16 0-8.832 0-31.008 0-31.008h224c0 0.016 0 22.192 0 31.024zM256 336.496c-8.848 0-16 7.168-16 16 0 8.848 7.152 16 16 16 8.832 0 16-7.152 16-16 0-8.832-7.168-16-16-16zM448 303.504l-64 0.992 0.336-49.664h-256.336v47.664l-64 0.992c-17.664 0-32-14.336-32-32v-224c0-17.664 14.336-32 32-32h384c17.664 0 32 14.336 32 32v224c0 17.68-14.336 32.016-32 32.016zM160 210.496c19.328 0 35.008-20.592 35.008-46s-15.68-46-35.008-46-35.008 20.592-35.008 46 15.68 46 35.008 46zM90.672 64.336c0 0 3.792 30.432 12.416 36.176 8.608 5.744 33.44 9.568 33.44 9.568s16.096-17.2 22.944-17.2c6.832 0 22.928 17.2 22.928 17.2s24.832-3.808 33.456-9.568c10.128-6.752 12.656-36.176 12.656-36.176h-137.84zM416 79.504h-144v16h144v-16zM416 111.504h-144v16h144v-16zM416 143.504h-144v16h144v-16zM416 175.504h-144v16h144v-16z" />
<glyph unicode="&#xe02c;" d="M0 80v288h512v-288h-512zM32 336.992v-224.992h448v224.992h-448zM336 224c0 53.008-35.808 96-80 96h208v-192h-208c44.192 0 80 42.992 80 96zM400 192c13.248 0 24 14.336 24 32s-10.752 32-24 32-24-14.336-24-32 10.752-32 24-32zM289.888 264.352c-0.24-0.88-0.576-1.504-0.992-1.904-0.432-0.4-1.008-0.592-1.744-0.592s-1.888 0.448-3.504 1.376c-1.6 0.944-3.568 1.936-5.888 3.024-2.336 1.088-5.024 2.080-8.096 2.992-3.072 0.896-6.432 1.328-10.096 1.328-2.88 0-5.376-0.336-7.504-1.040-2.128-0.688-3.92-1.664-5.344-2.88-1.44-1.232-2.496-2.72-3.2-4.432-0.688-1.712-1.040-3.552-1.040-5.472 0-2.88 0.784-5.36 2.352-7.456 1.568-2.096 3.664-3.968 6.304-5.6 2.64-1.648 5.616-3.168 8.96-4.592 3.312-1.44 6.72-2.96 10.192-4.544 3.472-1.616 6.864-3.424 10.192-5.456 3.344-2.032 6.32-4.464 8.912-7.296s4.688-6.16 6.304-9.984c1.6-3.84 2.384-8.336 2.384-13.552 0-6.8-1.248-12.752-3.776-17.888-2.544-5.12-5.968-9.408-10.32-12.832-4.336-3.44-9.392-6.016-15.184-7.744-0.736-0.224-1.536-0.32-2.288-0.496v-17.472h-15.728v15.408c-0.208 0-0.384-0.032-0.576-0.032-4.464 0-8.624 0.352-12.448 1.072-3.84 0.736-7.216 1.616-10.144 2.624-2.944 1.024-5.376 2.096-7.344 3.216-1.968 1.12-3.376 2.112-4.24 2.976-0.864 0.864-1.488 2.112-1.856 3.744-0.368 1.648-0.56 3.984-0.56 7.056 0 2.064 0.064 3.792 0.208 5.2s0.352 2.528 0.656 3.408 0.688 1.488 1.2 1.856c0.496 0.352 1.072 0.544 1.744 0.544 0.928 0 2.24-0.544 3.952-1.648 1.696-1.104 3.888-2.32 6.544-3.648 2.672-1.344 5.84-2.544 9.552-3.664 3.696-1.088 7.984-1.648 12.848-1.648 3.2 0 6.064 0.384 8.592 1.152s4.688 1.84 6.448 3.248 3.104 3.136 4.048 5.2c0.944 2.080 1.408 4.368 1.408 6.928 0 2.928-0.816 5.44-2.4 7.552-1.6 2.096-3.68 3.952-6.256 5.6-2.56 1.632-5.472 3.152-8.736 4.592-3.264 1.44-6.624 2.96-10.096 4.544-3.456 1.6-6.832 3.408-10.096 5.456-3.264 2.032-6.176 4.448-8.736 7.28-2.56 2.832-4.656 6.192-6.24 10.048-1.6 3.856-2.4 8.496-2.4 13.888 0 6.208 1.152 11.648 3.44 16.336 2.304 4.688 5.392 8.592 9.296 11.68s8.496 5.408 13.792 6.944c2.72 0.8 5.536 1.36 8.416 1.744v16.544h15.728v-16.544c0.624-0.080 1.248-0.048 1.872-0.144 3.056-0.464 5.936-1.088 8.592-1.888 2.672-0.784 5.024-1.664 7.104-2.672 2.064-0.992 3.424-1.808 4.096-2.48 0.672-0.656 1.104-1.216 1.36-1.68 0.224-0.464 0.416-1.088 0.592-1.856 0.16-0.768 0.288-1.728 0.336-2.912 0.064-1.152 0.096-2.608 0.096-4.336 0-1.936-0.048-3.584-0.144-4.928-0.144-1.264-0.304-2.384-0.544-3.248zM176 224c0-53.008 35.808-96 80-96h-208v192h208c-44.192 0-80-42.992-80-96zM112 256c-13.264 0-24-14.336-24-32s10.736-32 24-32c13.248 0 24 14.336 24 32s-10.752 32-24 32z" />
<glyph unicode="&#xe02d;" d="M448 80h-48v16c8.848 0 16 7.168 16 16 0 8.848-7.152 16-16 16h-32c-8.848 0-16-7.152-16-16 0-8.832 7.152-16 16-16v-16h-208v16c8.848 0 16 7.168 16 16 0 8.848-7.152 16-16 16h-32c-8.848 0-16-7.152-16-16 0-8.832 7.152-16 16-16v-16h-64c-17.664 0-32 14.336-32 32v224c0 17.664 14.336 32 32 32h384c17.664 0 32-14.336 32-32v-224c0-17.664-14.336-32-32-32zM160 323.008c-19.328 0-35.008-20.592-35.008-46s15.68-46 35.008-46 35.008 20.592 35.008 46-15.68 46-35.008 46zM215.84 212.992c-8.624 5.744-33.456 9.568-33.456 9.568s-16.096-17.2-22.928-17.2c-6.848 0-22.944 17.2-22.944 17.2s-24.832-3.808-33.44-9.568c-8.624-5.728-12.432-36.176-12.432-36.176h137.84c0.016 0.016-2.512 29.44-12.64 36.176zM416 304h-144v-16h144v16zM416 272h-144v-16h144v16zM416 240h-144v-16h144v16zM416 208h-144v-16h144v16z" />
<glyph unicode="&#xe02e;" d="M456 112h-195.936c5.744 9.904 10.144 20.64 13.056 32h182.88c8.848 0 16-7.152 16-16 0-8.832-7.152-16-16-16zM456 160h-179.776c0.656 5.248 1.104 10.576 1.104 16 0 5.44-0.448 10.752-1.104 16h179.776c8.848 0 16-7.152 16-16 0-8.832-7.152-16-16-16zM456 208h-182.88c-2.928 11.36-7.312 22.096-13.056 32h195.936c8.848 0 16-7.152 16-16 0-8.832-7.152-16-16-16zM456 256h-206.848c-10.4 12.976-23.248 23.888-37.904 32h244.752c8.848 0 16-7.152 16-16 0-8.832-7.152-16-16-16zM456 304h-256c-8.848 0-16 7.168-16 16 0 8.848 7.152 16 16 16h256c8.848 0 16-7.152 16-16 0-8.832-7.152-16-16-16zM456 352h-256c-8.848 0-16 7.168-16 16 0 8.848 7.152 16 16 16h256c8.848 0 16-7.152 16-16 0-8.832-7.152-16-16-16zM264 176c0-61.856-50.16-112-112-112-61.856 0-112 50.144-112 112s50.144 112 112 112c61.84 0 112-50.144 112-112zM191.648 163.824c-1.616 3.824-3.696 7.152-6.304 9.984s-5.568 5.264-8.896 7.296c-3.328 2.032-6.72 3.84-10.192 5.456-3.472 1.6-6.864 3.104-10.192 4.544-3.328 1.424-6.32 2.96-8.944 4.592-2.64 1.632-4.736 3.504-6.304 5.6-1.568 2.096-2.352 4.576-2.352 7.456 0 1.92 0.352 3.744 1.040 5.472 0.704 1.712 1.76 3.2 3.2 4.432 1.424 1.216 3.216 2.192 5.344 2.88 2.128 0.704 4.64 1.040 7.504 1.040 3.664 0 7.024-0.432 10.096-1.328 3.056-0.912 5.76-1.888 8.096-2.992 2.336-1.088 4.304-2.096 5.904-3.024 1.6-0.928 2.768-1.376 3.504-1.376s1.312 0.192 1.744 0.592c0.416 0.4 0.768 1.024 0.992 1.904 0.24 0.864 0.384 1.968 0.496 3.296 0.096 1.344 0.144 2.992 0.144 4.928 0 1.728-0.032 3.184-0.096 4.336-0.064 1.168-0.192 2.144-0.336 2.912-0.176 0.768-0.368 1.392-0.592 1.856-0.256 0.464-0.688 1.024-1.36 1.68-0.672 0.672-2.032 1.504-4.096 2.48-2.064 0.992-4.432 1.888-7.088 2.672-2.672 0.8-5.536 1.424-8.592 1.888-0.624 0.096-1.264 0.064-1.888 0.144v16.544h-15.744v-16.544c-2.896-0.384-5.696-0.96-8.416-1.744-5.296-1.536-9.888-3.84-13.792-6.944s-7.008-7.008-9.296-11.68c-2.304-4.704-3.44-10.144-3.44-16.336 0-5.392 0.8-10.032 2.384-13.888 1.6-3.856 3.68-7.216 6.256-10.048 2.576-2.832 5.472-5.248 8.736-7.28 3.264-2.048 6.64-3.856 10.096-5.456 3.472-1.6 6.832-3.104 10.096-4.544s6.176-2.976 8.736-4.592c2.576-1.648 4.656-3.504 6.256-5.6 1.6-2.112 2.4-4.624 2.4-7.552 0-2.544-0.464-4.848-1.392-6.928-0.944-2.064-2.288-3.792-4.048-5.2-1.76-1.408-3.904-2.48-6.432-3.248-2.544-0.768-5.392-1.152-8.608-1.152-4.864 0-9.152 0.544-12.848 1.648-3.696 1.104-6.88 2.32-9.552 3.664-2.672 1.328-4.848 2.528-6.544 3.648-1.696 1.088-3.008 1.648-3.952 1.648-0.672 0-1.264-0.192-1.744-0.544-0.512-0.368-0.912-0.992-1.2-1.856-0.304-0.88-0.512-2-0.656-3.408s-0.208-3.136-0.208-5.2c0-3.072 0.192-5.424 0.544-7.056 0.368-1.648 0.992-2.896 1.856-3.744 0.864-0.864 2.272-1.84 4.24-2.976s4.416-2.192 7.344-3.216c2.928-1.008 6.32-1.888 10.144-2.624 3.824-0.72 7.984-1.072 12.448-1.072 0.192 0 0.368 0.032 0.576 0.032v-15.408h15.728v17.472c0.752 0.192 1.552 0.288 2.288 0.496 5.792 1.728 10.864 4.32 15.2 7.744 4.336 3.424 7.76 7.696 10.304 12.832 2.528 5.136 3.776 11.088 3.776 17.888 0.016 5.168-0.784 9.664-2.368 13.504zM249.152 96h206.848c8.848 0 16-7.152 16-16 0-8.832-7.152-16-16-16h-244.752c14.656 8.112 27.504 19.024 37.904 32z" />
<glyph unicode="&#xe02f;" d="M394.784 129.456c0 0 53.28 36.448 53.28 108.336 0 107.008-113.408 146.576-174.384 145.52-60.992-1.072-79.168-17.12-79.168-17.12s-20.752 15.088-42.752 27.728c-16.832 6.56-20.736 7.504-32.432 3.744-9.36 0-3.472-15.584 0.288-21.2 3.728-5.616 21.856-36.64 21.856-36.64s-38.048-39.184-40.864-64.944c0 0.464-17.92 0.144-27.744 0.144s-8.896-10.704-8.896-10.704l0.272-75.424c0 0-0.608-10.704 8.304-10.704 8.896 0 27.808-0.208 27.808-0.208s26.608-38.64 43.472-45.664c0-0.464-14.576-40.048-14.576-40.048s-7.024-12.176 5.616-16.864c12.64-4.672 45.616-18.512 59.664-22.736 14.032-4.208 16.048 5.344 16.048 5.344l13.904 30.032 90.96-0.144 13.904-30.96c0 0 2.672-14.368 21.392-6.416 18.736 7.952 39.184 17.392 54.64 25.344 15.44 7.952 5.28 22.816 5.28 22.816l-15.872 30.768zM149.152 259.776c-8.528 0-15.44 6.928-15.44 15.456s6.912 15.44 15.44 15.44 15.456-6.912 15.456-15.44-6.928-15.456-15.456-15.456zM366.8 307.904c-4.928-5.84-8.144-1.536-12.112-0.368 0 0-16.816 15.6-41.52 22.88-25.584 7.52-52.512 3.888-52.512 3.888-3.968 1.168-8.784 1.296-8.816 7.424 0.208 7.568 9.392 7.632 9.28 7.888 0 0 30.304 2.8 55.664-4.656 24.944-7.328 44-23.264 44-23.264s10.192-7.024 6.016-13.792z" />
<glyph unicode="&#xe030;" d="M256.24 178.224l-65.152 53.488-141.792-167.408h414.016l-141.808 169.072-65.264-55.152zM478.816 383.696h-445.040l222.528-187.168 222.512 187.168zM331.28 241.808l148.656-177.344v303.232l-148.656-125.888zM32.064 367.696v-303.232l148.656 177.344-148.656 125.888z" />
<glyph unicode="&#xe031;" d="M362.528 304.192h82.752c11.088-24.656 17.712-51.664 18.848-80.192h-94.944c-0.4 30.144-2.896 56.704-6.656 80.192zM326.368 417.664c47.472-18.448 86.432-53.36 110.848-97.44h-77.376c-8.784 44.88-22.128 76.784-33.472 97.44zM257.088 320.224v111.936c17.056-0.752 33.632-3.456 49.472-7.888 12-20.208 27.504-53.952 37.28-104.048h-86.752zM151.824 127.776c-3.744 23.504-6.336 49.904-6.736 80.192h95.968v-80.192h-89.232zM151.664 304.192h89.392v-80.192h-96.064c0.4 30.176 2.928 56.688 6.672 80.192zM191.808 424.624c15.792 4.256 32.24 6.96 49.248 7.504v-111.904h-86.752c9.84 50.368 25.456 84.24 37.504 104.4zM58.576 320.224c24.816 44.8 64.992 79.888 113.536 98.096-11.44-20.64-24.944-52.72-33.824-98.096h-79.712zM128.96 224h-96.96c1.056 28.496 7.472 55.584 18.528 80.192h85.056c-3.728-23.504-6.24-50.048-6.624-80.192zM135.792 127.776h-84.64c-11.104 24.688-18.224 51.584-19.264 80.192h97.136c0.384-30.288 3.008-56.656 6.768-80.192zM138.416 111.744c8.944-45.824 22.656-77.872 34.144-98.272-48.72 18.128-88.912 53.36-113.76 98.272h79.616zM241.056 111.744v-111.904c-16.832 0.528-33.072 3.184-48.72 7.36-12.080 19.776-27.776 53.808-37.696 104.544h86.416zM343.536 111.744c-9.872-50.432-25.472-84.336-37.504-104.192-15.664-4.336-32.096-6.688-48.944-7.44v111.632h86.448zM257.088 207.968h95.968c-0.368-30.288-3.008-56.672-6.752-80.192h-89.216v80.192zM353.152 224h-96.064v80.192h89.376c3.76-23.504 6.288-50.016 6.688-80.192zM369.12 207.968h94.816c-1.056-28.592-8.096-55.488-19.152-80.192h-82.432c3.744 23.536 6.368 49.904 6.768 80.192zM437.088 111.744c-24.336-44.256-63.472-79.184-111.152-97.6 11.44 20.416 24.976 52.256 33.808 97.6h77.344z" />
<glyph unicode="&#xe032;" d="M267.552 130.192c-7.296 6.912-15.808 12.224-25.104 15.536l-19.488 75.888 232.096 64.928 24.864-96.896-212.368-59.456zM193.664 335.696l154.736 43.28 24.88-96.928-154.72-43.28-24.896 96.928zM200.608 147.184c-4.32-1.216-8.336-2.944-12.24-4.848l-68.224 265.84h-25.664c-2.576-5.616-7.968-9.568-14.336-9.568h-32.032c-8.848 0-16.016 7.504-16.016 16.736s7.168 16.72 16.016 16.72h32.032c5.376 0 9.888-2.944 12.8-7.152h49.28v-0.816l0.736 0.224 70.56-274.928c-4.304-0.4-8.608-1.024-12.912-2.208zM204.752 131.024c29.904 8.368 60.64-10.16 68.656-41.408 8.016-31.216-9.728-63.312-39.648-71.68-29.904-8.336-60.64 10.192-68.656 41.408s9.744 63.312 39.648 71.68zM196.32 66.976c3.424-13.376 16.608-21.312 29.424-17.712s20.416 17.344 16.992 30.72c-3.424 13.376-16.608 21.312-29.424 17.744-12.832-3.6-20.432-17.36-16.992-30.752zM477.92 132.784l-186.944-52.288c-0.336 4.464-0.96 8.976-2.112 13.472-1.136 4.496-2.784 8.72-4.624 12.784l185.968 52 7.712-25.968z" />
<glyph unicode="&#xe033;" d="M464 184c0-114.88-93.12-208-208-208s-208 93.12-208 208c0 101.28 72.4 185.552 168.24 204.112-5.2 7.664-8.24 16.912-8.24 26.896 0 26.512 21.488 48 48 48 26.496 0 48-21.488 48-48 0-9.968-3.040-19.216-8.256-26.896 95.856-18.56 168.256-102.832 168.256-204.112zM256 440c-13.264 0-24-10.752-24-24s10.736-24 24-24c13.248 0 24 10.752 24 24s-10.752 24-24 24zM272 359.2v-39.2h-32v39.2c-86.736-7.824-155.12-80.544-159.584-168.208h47.584v-30.992h-46.336c10.608-81.072 76.272-143.776 158.336-151.184v39.184h32v-39.184c81.712 7.376 147.152 70.592 158.176 151.184h-46.176v32h47.616c-3.968 88.128-72.576 159.344-159.616 167.2zM152.208 77.408l62.688 141.888 140.96 61.744-61.52-140.704-142.128-62.928zM277.12 202.336c-12.496 12.496-32.768 12.496-45.264 0s-12.496-32.752 0-45.248 32.768-12.496 45.264 0c12.496 12.496 12.496 32.736 0 45.248z" />
<glyph unicode="&#xe034;" d="M416-32h-320c-17.68 0-32 14.304-32 31.936v400.224c0 17.648 14.32 31.936 32 31.936h96v-31.936h-80c-8.832 0-16-7.136-16-15.968v-368.288c0-8.816 7.168-15.968 16-15.968h288c8.848 0 16 7.152 16 15.968v368.288c0 8.832-7.152 15.968-16 15.968h-80v31.936h96c17.664 0 32-14.304 32-31.936v-400.224c0-17.632-14.336-31.936-32-31.936zM400 384.192v-368.288h-288v368.288h16v-64.88h256v64.88h16zM176 271.408h-16v-15.968h16v15.968zM176 239.472h-16v-15.968h16v15.968zM176 207.536h-16v-15.968h16v15.968zM176 175.6h-16v-15.968h16v15.968zM176 143.664h-16v-15.968h16v15.968zM176 111.712h-16v-15.968h16v15.968zM176 79.776h-16v-15.968h16v15.968zM352 271.408h-160v-15.968h160v15.968zM352 239.472h-160v-15.968h160v15.968zM352 207.536h-160v-15.968h160v15.968zM352 175.6h-160v-15.968h160v15.968zM352 143.664h-160v-15.968h160v15.968zM352 111.712h-160v-15.968h160v15.968zM352 79.776h-160v-15.968h160v15.968zM352 384.192c8.848 0 16-7.136 16-15.968 0-8.816 0-31.936 0-31.936h-224c0 0 0 23.12 0 31.936 0 8.832 7.152 15.968 16 15.968h48c0 0 0.192 20.384 0.192 46.336 0 26.944 20.8 49.472 47.808 49.472s48.528-23.68 48.528-49.648c0-27.936-0.528-46.16-0.528-46.16h48zM256 432.096c-8.848 0-16-7.136-16-15.968 0-8.816 7.152-15.968 16-15.968s16 7.152 16 15.968c0 8.832-7.152 15.968-16 15.968z" />
<glyph unicode="&#xe035;" d="M126.448 367.632c0-8.8 0-31.888 0-31.888h224.224c0 0 0 23.088 0 31.888 0 8.816-7.12 15.952-15.936 15.952h-47.84c0 0 0.544 18.208 0.544 46.112 0 25.904-22.464 49.568-49.376 49.568s-47.648-22.496-47.648-49.424c0-25.904-0.192-46.256-0.192-46.256h-47.824c-8.816 0-15.952-7.136-15.952-15.952zM238.064 431.408c8.8 0 15.952-7.136 15.952-15.936 0-8.816-7.152-15.952-15.952-15.952s-15.952 7.136-15.952 15.952c0 8.8 7.152 15.936 15.952 15.936zM382.576 383.584v-158.416c0 0 13.76 15.184 31.872 22.464v151.888c0 17.616-15.28 31.888-32.88 31.888h-78.736v-31.888h63.776c8.816 0 15.968-7.136 15.968-15.936zM205.168-0.096h-94.672c-8.8 0-15.936 7.12-15.936 15.936v367.744c0 8.8 7.136 15.936 15.936 15.936h64.784v31.888h-80.72c-17.616 0-31.888-14.288-31.888-31.888v-399.616c0-17.616 14.272-31.904 31.888-31.904h145.296c-6.24 10.528-17.392 22.688-34.688 31.904zM382.576 15.84c0-8.816-7.152-15.936-15.952-15.936h-43.664c-8.032-10.752-15.6-21.44-22.56-31.904h81.184c17.6 0 32.88 14.288 32.88 31.904v98.064c-10.56-8.688-21.248-18.496-31.872-29.28v-52.848zM449.328 145.184c-17.968 39.936-7.68 72.368-5.12 109.808-105.264-52.4-172.016-209.648-172.016-209.648l-41.072 77.376-84.72-49.904c35.952-12.464 87.296-52.4 130.944-104.816 30.784 54.912 125.776 167.184 171.984 177.184z" />
<glyph unicode="&#xe036;" d="M384-32.656h-288c-17.68 0-32 14.288-32 31.936v385.552c0 17.632 14.32 31.92 32 31.92h80v-33.264h-64c-8.832 0-16-7.136-16-15.968v-352.272c0-8.848 7.168-15.968 16-15.968h256c8.848 0 16 7.12 16 15.968v352.272c0 8.832-7.152 15.968-16 15.968h-64v33.264h80c17.664 0 32-14.304 32-31.92v-385.552c0-17.648-14.336-31.936-32-31.936zM176 287.696h176v-15.968h-176v15.968zM176 239.792h176v-15.968h-176v15.968zM176 191.872h176v-15.968h-176v15.968zM176 143.968h176v-15.968h-176v15.968zM352 32.224h-176v15.936h176v-15.936zM176 96.064h176v-15.968h-176v15.968zM128 288.016h16v-15.968h-16v15.968zM128 240.112h16v-15.968h-16v15.968zM128 192.224h16v-15.968h-16v15.968zM128 144.32h16v-15.968h-16v15.968zM144 32.528h-16v15.968h16v-15.968zM128 96.4h16v-15.968h-16v15.968zM336 366.544c8.848 0 16-7.152 16-15.984 0-8.816 0-30.928 0-30.928h-224c0 0 0 22.112 0 30.928 0 8.832 7.152 15.984 16 15.984h48c0 0 0.192 22.704 0.192 48.656 0 26.944 20.8 49.472 47.808 49.472s48.528-23.68 48.528-49.632c0-27.952-0.528-48.496-0.528-48.496h48zM240 416.752c-8.848 0-16-7.136-16-15.952 0-8.832 7.152-15.968 16-15.968s16 7.136 16 15.968c0 8.816-7.152 15.952-16 15.952z" />
<glyph unicode="&#xe037;" d="M415.904 221.696l-195.6 195.6-188.304-0.72 0.288-173.296 202.592-202.592c12.704-12.72 33.152-12.896 45.664-0.384l135.744 135.76c12.496 12.496 12.336 32.928-0.384 45.632zM113.296 304.768c-17.664 0-32 14.336-32 32s14.336 32 32 32c17.68 0 32-14.336 32-32s-14.32-32-32-32zM461.536 221.312l-195.6 195.6-23.536-0.080 196.32-195.312c12.72-12.72 12.88-33.136 0.368-45.648l-135.744-135.76c-3.312-3.312-7.216-5.664-11.344-7.216 11.536-4.432 24.976-2.16 34.16 7.008l135.776 135.76c12.496 12.512 12.32 32.944-0.4 45.648z" />
<glyph unicode="&#xe038;" d="M287.463 192.538c-40.525-40.551-87.475-79.309-106.035-60.723-26.573 26.547-42.931 49.69-101.504 2.637s-13.594-78.438 12.16-104.192c29.696-29.671 140.391-1.562 249.831 107.853 109.389 109.415 137.549 220.135 107.827 249.83-25.728 25.754-57.088 70.707-104.166 12.16s-23.936-74.931 2.637-101.504c18.509-18.585-20.224-65.51-60.749-106.061z" />
<glyph unicode="&#xe039;" d="M355.251 480h-198.503c-28.749 0-52.25-23.501-52.25-52.25v-407.501c0-28.723 23.501-52.25 52.25-52.25h198.503c28.749 0 52.25 23.527 52.25 52.25v407.501c0 28.749-23.501 52.25-52.25 52.25zM256-11.111c-20.173 0-36.557 11.699-36.557 26.137s16.384 26.137 36.557 26.137c20.199 0 36.557-11.699 36.557-26.137s-16.358-26.137-36.557-26.137zM365.696 67.277h-219.418v344.807h219.418v-344.807z" />
<glyph unicode="&#xe03a;" d="M40.807 344.679c12.493-6.733 185.575-99.686 192.026-103.142 6.425-3.456 14.771-5.12 23.168-5.12 8.423 0 16.768 1.664 23.193 5.145 6.451 3.456 179.507 96.41 192 103.143 12.519 6.707 24.346 27.776 1.382 27.776h-433.127c-22.963 0-11.162-21.069 1.357-27.802zM476.493 293.479c-14.208-7.424-188.595-98.585-197.299-103.142s-14.771-5.146-23.193-5.146c-8.397 0-14.464 0.589-23.168 5.146s-183.117 95.744-197.299 103.142c-10.010 5.223-9.933-0.896-9.933-5.607 0-4.71 0-187.776 0-187.776 0-10.752 14.31-24.576 25.395-24.576h410.035c11.111 0 25.37 13.824 25.37 24.551 0 0 0 183.066 0 187.776 0 4.736 0.103 10.855-9.907 5.632z" />
<glyph unicode="&#xe03b;" d="M478.567 412.544c-8.781-3.097-443.418-156.237-451.968-159.258-7.27-2.56-8.909-8.832-0.256-12.262 10.266-4.121 97.178-38.938 97.178-38.938h-0.025l57.626-23.091c0 0 277.427 203.751 281.191 206.49 3.763 2.765 8.141-2.432 5.401-5.402-2.739-2.995-201.498-217.958-201.498-217.958-0.026 0-0.026 0-0.026 0l-11.571-12.902 15.335-8.243c0 0 119.040-64.077 127.514-68.659 7.424-3.993 17.101-0.666 19.251 8.576 2.534 10.906 72.832 313.907 74.394 320.615 2.048 8.781-3.738 14.131-12.544 11.034zM180.608 40.653c0-6.323 3.559-8.064 8.474-3.61 6.4 5.837 72.935 65.536 72.935 65.536l-81.408 42.137v-104.064z" />
<glyph unicode="&#xe03c;" d="M127.002-32c-34.202 0-66.227 14.49-89.37 37.658-44.8 44.8-57.319 123.034 5.504 185.856 36.839 36.787 184.295 184.243 257.895 257.843 26.137 26.137 59.366 36.224 91.213 27.673 31.257-8.346 56.909-33.971 65.28-65.254 8.525-31.846-1.587-65.101-27.699-91.213l-246.579-246.605c-14.080-14.080-29.977-22.426-45.977-24.089-15.821-1.664-30.925 3.43-41.523 14.003-19.2 19.175-21.914 55.27 9.984 87.142l173.184 173.235c7.117 7.091 18.663 7.091 25.779 0 7.117-7.117 7.117-18.662 0-25.779l-173.21-173.21c-14.976-14.976-16.358-29.286-9.984-35.661 2.79-2.765 7.040-4.045 11.93-3.533 7.501 0.793 16.051 5.658 24.039 13.645l246.579 246.579c16.921 16.922 23.399 36.813 18.253 56.039-5.069 18.918-20.582 34.432-39.501 39.501-19.226 5.146-39.117-1.357-56.039-18.253-73.575-73.6-221.031-221.056-257.843-257.843-48.026-48.026-36.531-103.296-5.529-134.323 31.027-31.002 86.298-42.522 134.349 5.529l257.869 257.843c7.091 7.117 18.663 7.117 25.753 0 7.117-7.117 7.117-18.662 0-25.753l-257.869-257.869c-30.387-30.413-64.384-43.162-96.487-43.162z" />
<glyph unicode="&#xe03d;" d="M379.392 110.131c-63.104 22.989-83.277 42.394-83.277 83.943 0 24.935 19.277 16.793 27.725 62.464 3.507 18.944 20.531 0.307 23.808 43.546 0 17.229-9.293 21.529-9.293 21.529s4.736 25.523 6.579 45.133c2.253 24.473-14.131 87.654-101.735 87.654-87.578 0-104.013-63.181-101.709-87.654 1.843-19.61 6.579-45.133 6.579-45.133s-9.319-4.275-9.319-21.529c3.251-43.238 20.275-24.601 23.783-43.546 8.474-45.671 27.75-37.529 27.75-62.464 0-41.549-20.173-60.954-83.277-83.943-63.335-23.040-104.448-46.567-104.448-62.618 0-16.026 0-53.888 0-53.888h481.28c0 0 0 37.863 0 53.888 0 16.026-41.139 39.552-104.448 62.618z" />
<glyph unicode="&#xe03e;" d="M440.039 373.735c-42.803 39.296-112.205 39.296-155.008 0l-29.030-26.675-29.056 26.675c-42.803 39.296-112.179 39.296-154.983 0-48.154-44.185-48.154-115.815 0-160.025l184.039-168.909 184.039 168.909c48.154 44.211 48.154 115.84 0 160.026z" />
<glyph unicode="&#xe03f;" d="M256 449.28l61.133-172.083h164.147l-133.939-101.069 47.872-177.408-139.213 106.342-139.213-106.342 47.872 177.408-133.939 101.069h164.147z" />
<glyph unicode="&#xe040;" d="M512-1.28c0 0-0.998 96.947-6.938 106.983-8.832 14.976-29.337 25.241-67.431 41.165-37.965 15.872-50.125 29.286-50.125 57.933 0 17.229 11.597 11.597 16.691 43.111 2.099 13.082 12.339 0.231 14.31 30.054 0 11.904-5.581 14.874-5.581 14.874s2.816 17.613 3.942 31.155c1.382 16.896-8.525 60.493-61.235 60.493s-62.567-43.623-61.209-60.493c1.101-13.542 3.917-31.155 3.917-31.155s-5.581-2.97-5.581-14.874c1.971-29.849 12.211-16.998 14.336-30.054 5.069-31.514 16.666-25.882 16.666-43.111 0-19.481-5.632-31.923-21.171-42.855 82.944-41.523 94.080-49.997 94.080-87.117v-76.109h115.328zM261.735 132.48c-50.662 21.145-66.816 39.015-66.816 77.235 0 22.938 15.463 15.463 22.246 57.498 2.791 17.434 16.487 0.281 19.072 40.064 0 15.872-7.45 19.814-7.45 19.814s3.789 23.475 5.274 41.549c1.843 22.477-11.367 80.64-81.639 80.64-70.272 0-83.456-58.137-81.613-80.64 1.485-18.074 5.248-41.549 5.248-41.549s-7.424-3.942-7.424-19.814c2.637-39.808 16.282-22.656 19.097-40.064 6.784-42.035 22.246-34.535 22.246-57.498 0-38.221-16.205-56.089-66.816-77.235-15.437-6.451-43.162-16.461-43.162-40.474v-93.286h355.687c0 0 0 55.168 0 69.914 0 21.939-43.187 42.599-93.952 63.846z" />
<glyph unicode="&#xe041;" d="M460.8 428.8h-409.6c-28.16 0-51.2-23.040-51.2-51.2v-307.2c0-28.16 23.040-51.2 51.2-51.2h409.6c28.185 0 51.2 23.040 51.2 51.2v307.2c0 28.16-23.014 51.2-51.2 51.2zM460.8 70.4h-409.6v307.2h409.6v-307.2zM230.4 170.24h-128v-46.080h128v46.080zM230.4 247.040h-128v-46.080h128v46.080zM230.4 323.84h-128v-46.080h128v46.080zM407.040 160c0 0-43.52 11.366-43.52 33.741 0 21.299 28.185 30.259 28.185 73.779 0 35.328-10.752 56.32-46.106 56.32s-46.080-20.966-46.080-56.32c0-43.52 28.16-52.48 28.16-73.779 0-22.375-43.495-33.741-43.495-33.741-2.586 0-2.586-35.84-2.586-35.84h128c0 0 0 35.84-2.56 35.84z" />
<glyph unicode="&#xe042;" d="M481.28 277.197h-164.173l-61.133 172.083-61.107-172.083h-164.147l133.914-101.069-47.872-177.408 139.213 106.342 139.213-106.342-47.872 177.408 133.965 101.069zM255.975 155.289l-77.107-64.025 31.795 91.187-72.986 58.88 90.137-2.56 28.135 103.424 28.16-103.424 90.137 2.56-72.986-58.88 31.821-91.187-77.107 64.025z" />
<glyph unicode="&#xe043;" d="M349.389 291.507c-3.379 9.088 90.624 93.056 35.789 161.075-12.851 15.897-56.346-76.185-118.144-117.863-34.073-22.989-113.433-71.936-113.433-98.995v-175.13c0-32.538 125.798-66.995 221.414-66.995 35.046 0 85.786 219.52 85.786 254.413 0 34.995-108.032 34.381-111.411 43.495zM128 289.075c-16.819 0-76.8-10.24-76.8-79.923v-124.109c0-69.683 59.981-77.337 76.8-77.337s-25.6 14.643-25.6 57.831v163.149c0 45.261 42.419 60.39 25.6 60.39z" />
<glyph unicode="&#xe044;" d="M162.637 156.467c3.353-9.088-90.624-93.031-35.789-161.049 12.851-15.923 56.346 76.16 118.144 117.863 34.074 22.989 113.408 71.962 113.408 98.995v175.104c0 32.563-125.773 67.021-221.389 67.021-35.047 0-85.811-219.52-85.811-254.413 0-34.995 108.058-34.381 111.437-43.52zM384 158.925c16.845 0 76.8 10.214 76.8 79.923v124.083c0 69.683-59.955 77.363-76.8 77.363-16.819 0 25.6-14.669 25.6-57.83v-163.149c0-45.261-42.419-60.391-25.6-60.391z" />
<glyph unicode="&#xe045;" d="M148.48 167.68v158.72h-97.28c-28.16 0-51.2-23.040-51.2-51.2v-153.6c0-28.16 23.040-51.2 51.2-51.2h25.6v-76.8l76.8 76.8h128c28.16 0 51.2 23.040 51.2 51.2v46.592c-1.639-0.358-3.379-0.538-5.12-0.538h-179.2zM460.8 454.4h-230.4c-28.16 0-51.2-23.040-51.2-51.2v-204.8h179.2l76.8-76.8v76.8h25.6c28.16 0 51.2 23.040 51.2 51.2v153.6c0 28.16-23.040 51.2-51.2 51.2z" />
<glyph unicode="&#xe046;" d="M125.85 382.643c-41.216 0-74.65-34.381-74.65-76.8s33.433-76.8 74.65-76.8c74.624 0 24.883-148.48-74.65-148.48v-35.815c177.613 0 247.219 337.895 74.65 337.895zM340.864 382.643c-41.216 0-74.649-34.381-74.649-76.8s33.433-76.8 74.649-76.8c74.624 0 24.883-148.48-74.649-148.48v-35.815c177.638 0 247.245 337.895 74.649 337.895z" />
<glyph unicode="&#xe047;" d="M480.512 216.32l-205.415 205.594c-10.496 10.906-27.673 10.906-38.17 0l-205.44-205.594c-10.522-10.88-6.605-19.815 8.704-19.815h42.829v-157.901c0-11.392 0.487-20.711 21.094-20.711h99.712v158.413h104.32v-158.413h104.678c15.719 0 16.154 9.293 16.154 20.711v157.901h42.803c15.283 0 19.226 8.909 8.729 19.815z" />
<glyph unicode="&#xe048;" d="M449.152 84.019l-96.743 96.743c14.592 23.987 22.989 52.096 22.989 82.227 0 87.449-75.801 163.251-163.277 163.251-87.45 0-158.362-70.912-158.362-158.361 0-87.475 75.776-163.277 163.251-163.277 29.082 0 56.32 7.885 79.744 21.581l97.255-97.28c9.549-9.523 24.96-9.523 34.457 0l24.141 24.115c9.498 9.523 6.041 21.504-3.456 31.002zM102.503 267.879c0 60.544 49.075 109.645 109.619 109.645 60.569 0 114.535-53.965 114.535-114.534s-49.075-109.645-109.645-109.645-114.509 53.965-114.509 114.534z" />
<glyph unicode="&#xe049;" d="M256 275.2c-42.394 0-76.8-34.406-76.8-76.8 0-42.419 34.406-76.8 76.8-76.8 42.419 0 76.8 34.381 76.8 76.8 0 42.394-34.381 76.8-76.8 76.8zM460.8 352h-61.414c-8.448 0-17.562 6.553-20.224 14.567l-15.872 47.641c-2.714 8.038-11.801 14.592-20.25 14.592h-174.080c-8.448 0-17.561-6.554-20.198-14.567l-15.923-47.667c-2.662-8.013-11.751-14.567-20.198-14.567h-61.44c-28.16 0-51.2-23.040-51.2-51.2v-230.4c0-28.16 23.040-51.2 51.2-51.2h409.6c28.185 0 51.2 23.040 51.2 51.2v230.4c0 28.16-23.014 51.2-51.2 51.2zM256 70.4c-70.707 0-128 57.293-128 128 0 70.682 57.293 128 128 128 70.682 0 128-57.318 128-128 0-70.707-57.318-128-128-128zM442.88 265.011c-9.882 0-17.894 8.013-17.894 17.92s8.013 17.92 17.894 17.92c9.907 0 17.92-8.013 17.92-17.92s-8.013-17.92-17.92-17.92z" />
<glyph unicode="&#xe04a;" d="M493.85 469.607c-2.765 8.064-11.495 12.314-19.481 9.523s-12.185-11.623-9.395-19.712c23.552-68.352-23.194-119.399-58.803-146.714l-14.413 20.839c-4.813 6.963-15.667 12.774-24.064 12.902l-80.768-0.384c-8.397 0.128-20.889-3.763-27.801-8.627l-237.978-168.653c-11.52-8.166-14.362-24.243-6.272-35.917l108.186-156.339c8.064-11.674 21.043-10.266 32.563-2.125l237.978 168.679c6.912 4.864 14.771 15.462 17.562 23.501l25.293 80.538c2.739 8.038 1.075 20.327-3.738 27.29l-8.806 12.697c47.846 36.992 97.51 102.451 69.939 182.503zM383.13 230.093c-18.457-13.081-43.879-8.525-56.807 10.137-12.902 18.662-8.423 44.391 10.035 57.472 14.643 10.394 33.664 9.625 47.36-0.461-6.912-4.198-11.623-6.605-12.519-7.040-7.629-3.635-10.906-12.851-7.296-20.583 2.611-5.607 8.089-8.909 13.849-8.909 2.176 0 4.403 0.487 6.502 1.485 4.889 2.329 10.189 5.171 15.693 8.474 2.457-15.181-3.533-31.155-16.819-40.576z" />
<glyph unicode="&#xe04b;" d="M80.231 303.616c23.911 18.56 43.725 5.786 70.17-24.832 2.995-3.43 6.989 0.589 9.242 2.56 2.253 1.997 37.171 33.382 38.861 34.841 1.715 1.51 3.763 4.327 1.049 7.475s-12.647 16-19.021 24.32c-46.285 60.544 126.618 101.606 100.045 102.246-13.491 0.359-67.738 0.973-75.827 0.128-32.845-3.481-74.087-34.176-94.848-48.461-27.136-18.663-37.299-29.491-38.963-31.001-7.68-6.733-1.229-22.195-15.155-34.407-14.72-12.902-23.885-3.149-32.41-10.624-4.25-3.738-16.051-12.57-19.456-15.565-3.379-2.97-3.994-8.013-0.538-12.058 0 0 32.333-35.738 35.072-38.887 2.714-3.149 10.009-5.811 14.541-1.817 4.531 3.968 16.154 14.183 18.125 15.923 1.997 1.715-1.28 22.093 9.114 30.157zM226.381 290.407c-3.072 3.559-6.861 3.635-10.163 0.717l-36.736-32.026c-2.867-2.56-3.251-7.27-0.666-10.24l212.327-241.613c4.941-5.735 13.543-6.323 19.251-1.357l24.858 20.787c5.658 4.966 6.247 13.671 1.305 19.379l-210.176 244.352zM509.491 393.242c-1.894 12.647-8.448 9.984-11.853 4.608-3.353-5.351-18.457-28.186-24.653-38.503-6.144-10.291-21.248-30.489-49.51-10.547-29.389 20.787-19.149 35.303-14.055 45.056 5.146 9.805 20.941 37.248 23.245 40.704 2.253 3.456-0.409 13.491-9.498 9.293-9.139-4.224-64.589-26.266-72.295-57.856-7.859-32.179 6.605-60.902-21.76-89.447l-34.355-35.84 34.509-40.141 42.342 40.218c10.112 10.137 31.642 19.993 51.149 15.565 41.805-9.472 64.589 6.247 78.361 32.179 12.339 23.219 10.291 72.064 8.371 84.71zM70.144 43.495c-5.325-5.376-5.325-14.080 0-19.43l24.346-23.808c5.325-5.351 13.773-3.098 19.097 2.253l125.619 123.52-38.503 43.853-130.56-126.387z" />
<glyph unicode="&#xe04c;" d="M429.696 224c0 26.829 16.512 48 41.344 62.541-4.505 14.95-10.394 29.312-17.69 42.803-27.904-7.296-50.457 3.635-69.402 22.579-18.995 18.969-24.806 41.549-17.51 69.402-13.491 7.296-27.801 13.261-42.803 17.715-14.541-24.857-40.832-41.369-67.635-41.369-26.803 0-53.069 16.512-67.635 41.369-15.001-4.454-29.312-10.419-42.803-17.689 7.27-27.879 1.485-50.457-17.485-69.427-18.969-18.944-41.549-29.875-69.402-22.605-7.296-13.465-13.235-27.827-17.715-42.777 24.858-14.541 41.37-35.712 41.37-62.541 0-26.803-16.512-53.094-41.37-67.661 4.48-14.976 10.419-29.312 17.715-42.803 27.879 7.296 50.432 1.485 69.402-17.485 18.97-18.969 24.755-41.523 17.485-69.402 13.491-7.296 27.827-13.261 42.803-17.715 14.566 24.883 40.832 41.37 67.635 41.37 26.803 0 53.12-16.512 67.661-41.37 15.002 4.48 29.312 10.419 42.803 17.715-7.296 27.878-1.51 50.432 17.51 69.402 18.944 18.944 41.498 29.875 69.402 22.605 7.296 13.491 13.209 27.827 17.69 42.803-24.858 14.567-41.37 35.738-41.37 62.541zM256 130.483c-51.635 0-93.491 41.882-93.491 93.517s41.856 93.517 93.491 93.517c51.661 0 93.517-41.882 93.517-93.517s-41.856-93.517-93.517-93.517z" />
<glyph unicode="&#xe04d;" d="M409.6 454.4h-307.2c-28.16 0-51.2-23.040-51.2-51.2v-358.4c0-28.16 23.040-51.2 51.2-51.2h307.2c28.185 0 51.2 23.040 51.2 51.2v358.4c0 28.16-23.014 51.2-51.2 51.2zM409.6 44.8h-307.2v358.4h307.2v-358.4zM281.6 172.8h-128v-25.6h128v25.6zM358.4 275.2h-102.4v-25.6h102.4v25.6zM256 300.8h102.4v51.2h-102.4v-51.2zM230.4 352h-76.8v-102.4h76.8v102.4zM204.8 224h-51.2v-25.6h51.2v25.6zM230.4 198.4h128v25.6h-128v-25.6zM358.4 121.6h-204.8v-25.6h204.8v25.6zM307.2 147.2h51.2v25.6h-51.2v-25.6z" />
<glyph unicode="&#xe04e;" d="M463.923 386.125c-7.577 6.553-48.793 37.76-56.499 44.39s-19.738 8.525-28.237 8.525h-246.375c-8.474 0-20.531-1.869-28.211-8.525-7.706-6.656-48.922-37.862-56.499-44.39s-13.901-16.409-11.879-30.49c2.023-14.080 49.587-332.109 49.587-332.109 2.662-8.013 11.776-14.567 20.275-14.567h299.853c8.499 0 17.613 6.579 20.275 14.567 0 0 47.539 318.029 49.587 332.109 1.997 14.080-4.301 23.936-11.878 30.489zM256 163.379c-83.149 0-100.941 117.683-104.627 141.927h47.027c7.091-35.379 23.194-95.847 57.6-95.847s50.535 60.467 57.626 95.846h47.002c-3.687-24.243-21.478-141.926-104.627-141.926zM75.853 352l56.474 58.88h247.347l56.474-58.88h-360.295z" />
<glyph unicode="&#xe04f;" d="M136.96-28.928h51.2l114.893 204.826h132.147c0 0 76.8 0 76.8 35.815 0 35.84-76.8 35.84-76.8 35.84h-132.147l-114.893 204.8h-51.2l63.693-204.8h-91.827l-57.626 51.225h-51.2l40.986-87.040-40.986-87.065h51.2l57.626 51.226h91.827l-63.693-204.826z" />
<glyph unicode="&#xe050;" d="M252.851 459.495c-130.048-1.741-234.087-108.57-232.346-238.643 1.741-130.099 108.595-234.087 238.643-232.371 130.073 1.741 234.112 108.595 232.346 238.643-1.741 130.099-108.595 234.112-238.643 232.371zM253.287 428.8c35.072 0.486 68.199-7.936 97.28-23.065l-31.693-52.839c-18.995 9.242-40.32 14.464-62.873 14.464-22.528 0-43.853-5.223-62.848-14.49l-31.667 52.813c27.494 14.336 58.675 22.656 91.802 23.117zM127.13 161.152l-52.787-31.642c-14.336 27.469-22.656 58.649-23.091 91.75-0.486 35.097 7.936 68.224 23.066 97.28l52.813-31.718c-9.267-18.97-14.49-40.269-14.49-62.823 0-22.528 5.222-43.853 14.489-62.848zM258.739 19.226c-35.072-0.486-68.224 7.936-97.28 23.065l31.693 52.839c18.995-9.267 40.32-14.49 62.848-14.49 22.553 0 43.879 5.197 62.848 14.464l31.667-52.787c-27.495-14.31-58.649-22.63-91.776-23.091zM256 111.385c-62.208 0-112.615 50.432-112.615 112.615 0 62.208 50.432 112.64 112.615 112.64 62.233 0 112.64-50.432 112.64-112.64 0-62.208-50.406-112.615-112.64-112.615zM384.871 161.152c9.267 18.995 14.49 40.32 14.49 62.848 0 22.553-5.223 43.853-14.49 62.848l52.787 31.693c14.336-27.495 22.681-58.65 23.117-91.776 0.461-35.098-7.962-68.224-23.091-97.28l-52.813 31.667z" />
<glyph unicode="&#xe051;" d="M256 367.36c-167.962 0-256-123.725-256-143.36s88.039-143.36 256-143.36 256 123.725 256 143.36-88.039 143.36-256 143.36zM256 113.715c-62.822 0-113.767 49.382-113.767 110.285s50.944 110.285 113.767 110.285c62.848 0 113.792-49.382 113.792-110.285s-50.944-110.285-113.792-110.285zM256 224c-10.393 11.417 16.998 55.117 0 55.117-31.411 0-56.883-24.678-56.883-55.117s25.472-55.142 56.883-55.142c31.437 0 56.909 24.704 56.909 55.142 0 13.977-48.026-9.728-56.909 0z" />
<glyph unicode="&#xe052;" d="M256 459.52c-130.074 0-235.52-105.472-235.52-235.52 0-130.073 105.447-235.52 235.52-235.52s235.52 105.447 235.52 235.52c0 130.074-105.447 235.52-235.52 235.52zM256 39.68c-101.811 0-184.32 82.534-184.32 184.32s82.509 184.32 184.32 184.32 184.32-82.534 184.32-184.32-82.509-184.32-184.32-184.32zM273.92 357.12h-35.84v-140.544l87.168-87.168 25.344 25.344-76.672 76.672z" />
<glyph unicode="&#xe053;" d="M435.2 403.2h-23.040v-51.2h-81.92v51.2h-148.48v-51.2h-81.92v51.2h-23.040c-28.16 0-51.2-23.040-51.2-51.2v-307.2c0-28.16 23.040-51.2 51.2-51.2h358.4c28.16 0 51.2 23.040 51.2 51.2v307.2c0 28.16-23.040 51.2-51.2 51.2zM435.2 44.8h-358.4v204.8h358.4v-204.8zM158.72 454.4h-35.84v-87.040h35.84v87.040zM389.12 454.4h-35.84v-87.040h35.84v87.040z" />
<glyph unicode="&#xe054;" d="M232.96 198.349h46.080v-51.2h232.96c0 0-3.789 114.125-5.12 149.863-1.255 33.945-13.389 54.938-51.2 54.938h-82.125c-12.723 23.987-26.419 49.792-30.618 57.728-8.474 15.974-11.366 19.072-30.208 19.072h-113.459c-18.841 0-21.734-3.097-30.208-19.072-4.198-7.936-17.894-33.741-30.618-57.728h-82.125c-37.811 0-49.792-20.992-51.2-54.938s-5.12-149.863-5.12-149.863h232.96v51.2zM195.84 379.725c5.863 11.059 7.885 13.209 20.889 13.209h78.515c13.056 0 15.053-2.151 20.889-13.209 2.202-4.147 8.141-15.36 14.745-27.75h-149.76c6.579 12.365 12.518 23.577 14.72 27.75zM279.040 70.349h-46.080v51.2h-220.16c0 0 3.2-46.029 5.12-85.043 0.794-16.205 5.555-42.957 46.054-42.957h384.051c40.499 0 45.159 26.777 46.055 42.957 2.227 40.115 5.12 85.043 5.12 85.043h-220.16v-51.2z" />
<glyph unicode="&#xe055;" d="M460.8 377.6h-25.6v-384h25.6c28.16 0 51.2 23.040 51.2 51.2v281.6c0 28.16-23.040 51.2-51.2 51.2zM0 326.4v-281.6c0-28.16 23.040-51.2 51.2-51.2h25.6v384h-25.6c-28.16 0-51.2-23.040-51.2-51.2zM343.040 431.181c-17.433 8.115-45.261 23.219-87.040 23.219s-69.606-15.104-87.040-23.219v-53.581h-56.32v-384h286.72v384h-56.32v53.581zM312.32 377.6h-112.64v34.176c13.645 5.888 33.229 11.904 56.32 11.904s42.649-5.99 56.32-11.879v-34.201z" />
<glyph unicode="&#xe056;" d="M256 469.786c-135.527 0-245.76-110.285-245.76-245.786 0-135.527 110.234-245.786 245.76-245.786s245.76 110.259 245.76 245.786c0 135.501-110.233 245.786-245.76 245.786zM465.613 224c0-47.949-16.281-92.185-43.418-127.514-7.68 6.016-15.821 22.221-8.141 39.015 7.731 16.896 9.753 56.013 7.987 71.219-1.69 15.207-9.6 51.866-31.104 52.224-21.427 0.333-36.147 7.399-48.896 32.845-26.445 52.915 49.639 63.104 23.194 92.416-7.399 8.218-45.645-33.894-51.251 22.221-0.384 4.019 3.456 10.035 8.576 16.256 83.046-27.904 143.053-106.394 143.053-198.682zM227.2 431.514c-4.992-9.728-18.227-13.721-26.291-21.069-17.485-15.821-25.011-13.645-34.458-28.851-9.472-15.207-40.090-37.094-40.090-48.103 0-10.982 15.462-23.987 23.194-21.453 7.731 2.56 28.109 2.406 40.089-1.792 12.006-4.25 100.224-8.473 72.089-83.046-8.909-23.705-47.923-19.712-58.317-58.983-1.561-5.76-6.938-30.361-7.322-38.4-0.614-12.442 8.807-59.341-3.2-59.341-12.058 0-44.467 41.959-44.467 49.562s-8.423 34.279-8.423 57.088-38.835 22.451-38.835 52.787c0 27.392 21.069 41.011 16.333 54.093-4.659 13.056-41.651 13.517-57.063 15.104 26.931 69.939 90.343 121.856 166.759 132.403zM190.080 25.088c12.595 6.63 13.875 15.232 25.293 15.693 13.056 0.563 23.68 5.094 38.374 8.32 13.082 2.841 36.429 16.103 57.037 17.792 17.331 1.433 51.584-0.896 60.8-17.639-33.178-22.016-72.909-34.867-115.584-34.867-23.040 0-45.184 3.789-65.92 10.701z" />
<glyph unicode="&#xe057;" d="M102.4 44.8c0-28.262 22.938-51.2 51.2-51.2 28.288 0 51.2 22.938 51.2 51.2s-22.912 51.2-51.2 51.2c-28.263 0-51.2-22.938-51.2-51.2zM358.4 44.8c0-28.262 22.938-51.2 51.2-51.2 28.288 0 51.2 22.938 51.2 51.2s-22.912 51.2-51.2 51.2c-28.262 0-51.2-22.938-51.2-51.2zM193.203 165.837l283.367 80.947c5.401 1.561 9.831 7.424 9.831 13.056v140.8h-360.96v43.52c0 5.632-4.582 10.24-10.24 10.24h-79.36c-5.632 0-10.24-4.608-10.24-10.24v-40.96h49.741l50.381-231.859 4.864-24.141v-38.4c0-5.632 4.608-10.24 10.214-10.24h335.386c5.606 0 10.214 4.608 10.214 10.24v38.4h-287.949c-29.415 0-30.029 11.52-5.248 18.637z" />
<glyph unicode="&#xe058;" d="M399.36 428.8l-30.72-76.8h-225.28l-30.72 76.8c-19.712 0-35.84-16.128-35.84-35.84v-389.12c0-19.712 16.128-35.84 35.84-35.84h286.72c19.738 0 35.84 16.128 35.84 35.84v389.12c0 19.712-16.128 35.84-35.84 35.84zM348.16 377.6l23.040 51.2h-55.808l-18.432 51.2h-81.92l-18.432-51.2h-55.808l23.040-51.2h184.32z" />
<glyph unicode="&#xe059;" d="M460.8 403.2h-409.6c-28.16 0-51.2-23.040-51.2-51.2v-256c0-28.16 23.040-51.2 51.2-51.2h409.6c28.16 0 51.2 23.040 51.2 51.2v256c0 28.16-23.040 51.2-51.2 51.2zM460.8 96h-409.6v153.6h409.6v-153.6zM460.8 326.4h-409.6v25.6h409.6v-25.6zM102.4 195.84v-15.36h15.36v15.36h-15.36zM194.56 165.12v-15.36h30.72v15.36h15.36v15.36h15.36v15.36h-30.72v-15.36h-15.36v-15.36h-15.36zM256 149.76v15.36h-15.36v-15.36h15.36zM179.2 149.76v15.36h-30.72v-15.36h30.72zM194.56 180.48h15.36v15.36h-30.72v-30.72h15.36v15.36zM133.12 165.12h15.36v15.36h15.36v15.36h-30.72v-15.36h-15.36v-15.36h-15.36v-15.36h30.72v15.36z" />
<glyph unicode="&#xe05a;" d="M183.936-10.752c20.198-13.056 43.597-21.888 72.064-21.197 28.467-0.691 51.84 8.141 72.039 21.197v52.992h-144.103v-52.992zM325.018 72.986c0 111.514 118.553 147.2 109.671 258.279-5.581 70.093-53.069 148.736-178.688 148.736s-173.107-78.643-178.688-148.736c-8.883-111.104 109.645-146.765 109.645-258.279h138.061zM131.533 327.219c5.325 66.534 50.585 100.275 124.467 100.275s119.142-33.741 124.442-100.275c2.893-36.429-18.048-60.723-46.336-100.505-20.813-29.337-45.44-63.974-56.96-109.082h-42.317c-11.52 45.107-36.122 79.719-56.986 109.082-28.262 39.808-49.203 64.077-46.31 100.505z" />
<glyph unicode="&#xe05b;" d="M229.53 423.731c-98.663-11.725-176.845-89.933-188.57-188.57h188.57v188.57zM283.469 423.347v-216.448c0-14.183-11.495-25.677-25.702-25.677h-216.448c13.849-105.856 104.269-187.597 213.863-187.597 119.194 0 215.859 96.615 215.859 215.859 0 109.594-81.741 200.013-187.571 213.863z" />
<glyph unicode="&#xe05c;" d="M435.2 454.4h-56.32c-14.131 0-20.48-11.469-20.48-25.6v-435.2h102.4v435.2c0 14.131-11.443 25.6-25.6 25.6zM281.6 300.8h-56.32c-14.131 0-20.48-11.469-20.48-25.6v-281.6h102.4v281.6c0 14.131-11.443 25.6-25.6 25.6zM128 147.2h-56.32c-14.131 0-20.48-11.443-20.48-25.6v-128h102.4v128c0 14.157-11.469 25.6-25.6 25.6z" />
<glyph unicode="&#xe05d;" d="M498.893 418.893l-118.503-193.050c-4.403-7.142-13.005-8.32-19.149-2.586l-57.293 53.657c-6.144 5.735-14.95 4.711-19.61-2.304l-80.461-121.344c-4.633-6.989-13.517-8.089-19.738-2.457l-37.453 34.202c-6.221 5.658-15.59 4.915-20.838-1.613l-117.991-147.149c-5.274-6.579-2.688-11.93 5.683-11.93h493.338v392.32c0.026 8.423-3.584 9.447-7.987 2.253z" />
<glyph unicode="&#xe05e;" d="M404.506 275.149h-46.106v35.84c0 74.163-34.151 117.76-102.4 117.76-68.224 0-102.4-43.597-102.4-117.76v-35.84h-51.2c-14.131 0-25.6-16.563-25.6-30.72v-199.68c0-14.080 10.983-29.159 24.371-33.459l30.617-9.907c13.389-4.327 35.866-7.859 49.971-7.859h148.48c14.080 0 36.582 3.533 49.971 7.859l30.618 9.907c13.414 4.301 24.371 19.379 24.371 33.459v199.68c0 14.157-16.563 30.72-30.695 30.72zM204.8 321.229c0 36.992 20.429 56.32 51.2 56.32 30.797 0 51.2-19.328 51.2-56.32v-46.080h-102.4v46.080z" />
<glyph unicode="&#xe05f;" d="M404.48 275.2h-46.080v61.44c0 74.163-34.176 117.76-102.4 117.76-68.25 0-102.4-43.597-102.4-117.76v-10.24h51.2v20.48c0 36.992 20.403 56.32 51.2 56.32 30.771 0 51.2-19.328 51.2-56.32v-71.68h-204.8c-14.157 0-25.6-16.563-25.6-30.72v-199.68c0-14.080 10.983-29.133 24.371-33.459l30.617-9.907c13.415-4.301 35.891-7.834 49.971-7.834h148.48c14.106 0 36.582 3.533 49.971 7.859l30.618 9.907c13.389 4.301 24.371 19.353 24.371 33.433v199.68c0 14.157-16.563 30.72-30.72 30.72z" />
<glyph unicode="&#xe060;" d="M256 439.040c-118.784 0-215.040-96.307-215.040-215.040 0-118.784 96.282-215.040 215.040-215.040 118.759 0 215.040 96.282 215.040 215.040 0 118.759-96.282 215.040-215.040 215.040zM282.163 197.837v-103.091h-52.327v103.091h-103.117v52.327h103.091v103.117h52.352v-103.091h103.091v-52.352h-103.091z" />
<glyph unicode="&#xe061;" d="M256 439.040c-118.784 0-215.040-96.307-215.040-215.040 0-118.784 96.282-215.040 215.040-215.040 118.759 0 215.040 96.282 215.040 215.040 0 118.759-96.282 215.040-215.040 215.040zM385.28 250.163v-52.352h-258.56v52.352h258.56z" />
<glyph unicode="&#xe062;" d="M256 439.040c-118.784 0-215.040-96.307-215.040-215.040 0-118.784 96.282-215.040 215.040-215.040 118.759 0 215.040 96.282 215.040 215.040 0 118.759-96.282 215.040-215.040 215.040zM300.263 224l78.362-78.361-44.262-44.262-78.362 78.362-78.362-78.361-44.237 44.262 78.336 78.362-78.336 78.336 44.237 44.262 78.362-78.336 78.361 78.336 44.262-44.237-78.362-78.362z" />
<glyph unicode="&#xe063;" d="M252.851 459.495c-130.048-1.741-234.087-108.595-232.346-238.669 1.741-129.997 108.595-234.061 238.643-232.32 130.048 1.741 234.087 108.595 232.346 238.669-1.715 130.023-108.595 234.061-238.643 232.32zM278.963 381.005c23.936 0 31.002-13.875 31.002-29.773 0-19.84-15.897-38.195-43.008-38.195-22.682 0-33.459 11.417-32.819 30.259 0 15.897 13.312 37.709 44.825 37.709zM217.575 76.8c-16.358 0-28.339 9.933-16.896 53.606l18.765 77.415c3.251 12.416 3.789 17.382 0 17.382-4.889 0-26.137-8.576-38.707-17.024l-8.166 13.389c39.808 33.229 85.581 52.736 105.19 52.736 16.358 0 19.072-19.353 10.906-49.126l-21.504-81.408c-3.789-14.387-2.151-19.353 1.639-19.353 4.889 0 20.992 5.939 36.813 18.381l9.241-12.416c-38.681-38.681-80.896-53.581-97.28-53.581z" />
<glyph unicode="&#xe064;" d="M128 147.2h-25.6c-14.131 0-25.6-11.443-25.6-25.6s11.469-25.6 25.6-25.6h25.6c14.131 0 25.6 11.443 25.6 25.6s-11.469 25.6-25.6 25.6zM128 249.6h-25.6c-14.131 0-25.6-11.469-25.6-25.6s11.469-25.6 25.6-25.6h25.6c14.131 0 25.6 11.469 25.6 25.6s-11.469 25.6-25.6 25.6zM128 352h-25.6c-14.131 0-25.6-11.469-25.6-25.6s11.469-25.6 25.6-25.6h25.6c14.131 0 25.6 11.469 25.6 25.6s-11.469 25.6-25.6 25.6zM230.4 300.8h179.2c14.157 0 25.6 11.469 25.6 25.6s-11.443 25.6-25.6 25.6h-179.2c-14.131 0-25.6-11.469-25.6-25.6s11.469-25.6 25.6-25.6zM409.6 249.6h-179.2c-14.131 0-25.6-11.469-25.6-25.6s11.469-25.6 25.6-25.6h179.2c14.157 0 25.6 11.469 25.6 25.6s-11.443 25.6-25.6 25.6zM409.6 147.2h-179.2c-14.131 0-25.6-11.443-25.6-25.6s11.469-25.6 25.6-25.6h179.2c14.157 0 25.6 11.443 25.6 25.6s-11.443 25.6-25.6 25.6z" />
<glyph unicode="&#xe065;" d="M409.6 249.6h-307.2c-14.131 0-25.6-11.469-25.6-25.6s11.469-25.6 25.6-25.6h307.2c14.157 0 25.6 11.469 25.6 25.6s-11.443 25.6-25.6 25.6zM102.4 300.8h307.2c14.157 0 25.6 11.469 25.6 25.6s-11.443 25.6-25.6 25.6h-307.2c-14.131 0-25.6-11.469-25.6-25.6s11.469-25.6 25.6-25.6zM409.6 147.2h-307.2c-14.131 0-25.6-11.443-25.6-25.6s11.469-25.6 25.6-25.6h307.2c14.157 0 25.6 11.443 25.6 25.6s-11.443 25.6-25.6 25.6z" />
<glyph unicode="&#xe066;" d="M86.759 277.453l28.211-248.55c1.51-11.801 58.496-50.611 141.031-50.663 82.534 0.051 139.546 38.861 141.056 50.663l28.211 248.551c-43.111-24.115-107.546-35.533-169.267-35.533s-126.157 11.417-169.242 35.533zM337.075 431.053l-21.99 24.397c-8.474 12.058-17.69 14.31-35.635 14.31h-46.899c-17.92 0-27.136-2.253-35.635-14.31l-21.965-24.397c-65.792-11.495-113.511-41.984-113.511-64.461v-4.377c0-39.577 87.091-71.68 194.56-71.68s194.56 32.102 194.56 71.68v4.377c0 22.477-47.693 52.966-113.485 64.461zM308.967 374.042l-32.051 34.279h-41.831l-32.051-34.279h-43.52c0 0 47.667 56.832 54.042 64.537 4.864 5.888 9.856 8.141 16.307 8.141h52.301c6.451 0 11.418-2.253 16.307-8.141 6.349-7.705 54.041-64.537 54.041-64.537h-43.546z" />
<glyph unicode="&#xe067;" d="M255.616 418.56v-97.997l179.635 0.025v-193.331h-179.635v-97.818l-194.125 194.56z" />
<glyph unicode="&#xe068;" d="M450.56 224.384l-97.997-0.025 0.026-179.609h-193.331v179.635l-97.818-0.025 194.586 194.151z" />
<glyph unicode="&#xe069;" d="M255.616 55.040v97.997l179.635-0.026v142.131h-179.635v97.818l-194.125-168.986z" />
<glyph unicode="&#xe06a;" d="M424.96 223.616l-97.997 0.026 0.026 179.609h-142.131v-179.635l-97.818 0.026 168.96-194.151z" />
<glyph unicode="&#xe06b;" d="M424.96 224.384l-97.997-0.025 0.026-179.609h-142.131v179.635l-97.818-0.025 168.985 194.151z" />
<glyph unicode="&#xe06c;" d="M256.384 392.96v-97.997l-179.635 0.026v-142.131h179.635v-97.818l194.125 168.986z" />
<glyph unicode="&#xe06d;" d="M256 459.52c-130.074 0-235.52-105.447-235.52-235.52s105.447-235.52 235.52-235.52 235.52 105.447 235.52 235.52-105.447 235.52-235.52 235.52zM256 39.68c-101.811 0-184.32 82.534-184.32 184.32s82.509 184.32 184.32 184.32 184.32-82.534 184.32-184.32-82.509-184.32-184.32-184.32zM302.080 322.56h-92.16v-104.704h-57.6l103.68-97.536 103.68 97.536h-57.6v104.704z" />
<glyph unicode="&#xe06e;" d="M256.026-11.52c130.074 0 235.494 105.447 235.494 235.52s-105.421 235.52-235.495 235.52c-130.099 0-235.546-105.447-235.546-235.52s105.447-235.52 235.546-235.52zM256.026 408.32c101.811 0 184.295-82.534 184.295-184.32s-82.509-184.32-184.294-184.32c-101.837 0-184.346 82.509-184.346 184.32s82.509 184.32 184.346 184.32zM209.92 125.44h92.186v104.704h57.6l-103.68 97.536-103.706-97.536h57.6v-104.704z" />
<glyph unicode="&#xe06f;" d="M20.48 224c0-130.073 105.472-235.52 235.52-235.52 130.073 0 235.52 105.447 235.52 235.52 0 130.074-105.447 235.52-235.52 235.52-130.074 0-235.52-105.447-235.52-235.52zM440.32 224c0-101.786-82.534-184.32-184.32-184.32s-184.32 82.509-184.32 184.32c0 101.811 82.509 184.32 184.32 184.32s184.32-82.509 184.32-184.32zM157.44 270.080v-92.16h104.704v-57.6l97.536 103.68-97.536 103.68v-57.6h-104.704z" />
<glyph unicode="&#xe070;" d="M292.787 364.391c-10.701-10.445-115.251-120.217-115.251-120.217-5.709-5.581-8.551-12.877-8.551-20.173s2.841-14.592 8.551-20.173c0 0 104.551-109.773 115.251-120.192 10.701-10.445 29.952-11.161 41.37 0 11.392 11.136 12.288 26.675-0.026 40.32l-95.923 100.045 95.923 100.045c12.313 13.671 11.418 29.209 0.026 40.346-11.443 11.136-30.695 10.445-41.37 0z" />
<glyph unicode="&#xe071;" d="M396.365 260.787c-10.419-10.701-120.192-115.277-120.192-115.277-5.581-5.709-12.877-8.551-20.173-8.551-7.322 0-14.618 2.841-20.173 8.551 0 0-109.773 104.576-120.218 115.277-10.419 10.701-11.136 29.926 0 41.37 11.162 11.417 26.701 12.314 40.345 0l100.045-95.949 100.019 95.923c13.671 12.313 29.235 11.418 40.346 0 11.161-11.418 10.471-30.669 0-41.344z" />
<glyph unicode="&#xe072;" d="M396.365 187.213c-10.419 10.701-120.192 115.251-120.192 115.251-5.581 5.709-12.877 8.576-20.173 8.576-7.322 0-14.618-2.867-20.173-8.576 0 0-109.773-104.551-120.218-115.251-10.419-10.701-11.136-29.952 0-41.37 11.162-11.392 26.701-12.313 40.345 0l100.045 95.923 100.019-95.923c13.671-12.313 29.235-11.392 40.346 0 11.161 11.443 10.471 30.695 0 41.37z" />
<glyph unicode="&#xe073;" d="M219.213 364.391c10.701-10.445 115.251-120.217 115.251-120.217 5.735-5.581 8.576-12.877 8.576-20.173s-2.841-14.592-8.576-20.173c0 0-104.551-109.773-115.251-120.192-10.701-10.445-29.927-11.161-41.369 0-11.417 11.136-12.314 26.675 0 40.32l95.949 100.045-95.923 100.045c-12.314 13.671-11.417 29.209 0 40.346 11.417 11.136 30.669 10.445 41.344 0z" />
<glyph unicode="&#xe074;" d="M317.415 136.499c6.861-6.938 6.861-18.151 0-25.063-6.861-6.938-17.945-6.938-24.807 0l-98.048 100.019c-6.861 6.938-6.861 18.15 0 25.063l98.048 100.045c6.861 6.938 17.945 6.938 24.807 0s6.861-18.125 0-25.063l-80.384-87.501 80.384-87.501z" />
<glyph unicode="&#xe075;" d="M343.501 285.415c6.938 6.861 18.151 6.861 25.063 0 6.938-6.861 6.938-17.945 0-24.806l-100.019-98.048c-6.938-6.861-18.15-6.861-25.063 0l-100.045 98.048c-6.912 6.861-6.912 17.945 0 24.806 6.938 6.861 18.125 6.861 25.063 0l87.501-80.384 87.501 80.384z" />
<glyph unicode="&#xe076;" d="M168.474 162.586c-6.938-6.861-18.125-6.861-25.063 0-6.912 6.861-6.938 17.945 0 24.832l100.045 97.997c6.938 6.861 18.151 6.861 25.063 0l100.045-98.022c6.938-6.887 6.938-17.971 0-24.832s-18.125-6.861-25.063 0l-87.527 80.409-87.501-80.384z" />
<glyph unicode="&#xe077;" d="M194.586 136.499c-6.861-6.938-6.861-18.151 0-25.063 6.835-6.938 17.946-6.938 24.807 0l98.048 100.019c6.861 6.938 6.861 18.15 0 25.063l-98.048 100.045c-6.861 6.938-17.946 6.938-24.807 0s-6.861-18.125-0.025-25.037l80.409-87.527-80.384-87.501z" />
<glyph unicode="&#xe078;" d="M368.615 34.099c6.861-6.938 6.861-18.125 0-25.063s-17.945-6.938-24.807 0l-200.448 202.419c-6.861 6.938-6.861 18.15 0 25.063l200.448 202.445c6.861 6.938 17.945 6.938 24.807 0s6.861-18.125 0-25.063l-182.784-189.901 182.784-189.901z" />
<glyph unicode="&#xe079;" d="M66.099 336.615c-6.938 6.861-18.151 6.861-25.063 0-6.912-6.835-6.912-17.946 0-24.807l202.445-200.448c6.938-6.861 18.125-6.861 25.063 0l202.445 200.448c6.912 6.861 6.938 17.946 0 24.807s-18.176 6.861-25.063 0.025l-189.927-182.809-189.901 182.784z" />
<glyph unicode="&#xe07a;" d="M445.901 111.385c6.938-6.861 18.151-6.861 25.063 0 6.938 6.861 6.938 17.945 0 24.807l-202.445 200.448c-6.912 6.861-18.125 6.861-25.037 0l-202.445-200.448c-6.912-6.861-6.938-17.945 0-24.807s18.125-6.861 25.063 0l189.901 182.81 189.901-182.81z" />
<glyph unicode="&#xe07b;" d="M143.352 34.099c-6.861-6.938-6.861-18.125 0-25.063s17.946-6.938 24.807 0l200.448 202.419c6.861 6.938 6.861 18.15 0 25.063l-200.448 202.445c-6.861 6.938-17.946 6.938-24.807 0s-6.861-18.125 0-25.063l182.784-189.901-182.784-189.901z" />
<glyph unicode="&#xe07c;" d="M127.565 96l0.025 82.637 379.29-0.026v90.957h-379.315l0.025 82.432-122.471-128z" />
<glyph unicode="&#xe07d;" d="M384 95.539l-82.637 0.026 0.026 379.315h-90.957v-379.341l-82.432 0.026 128-122.445z" />
<glyph unicode="&#xe07e;" d="M384 352.435h-82.637l0.026-379.315h-90.957v379.315h-82.432l128 122.445z" />
<glyph unicode="&#xe07f;" d="M384.461 96l-0.026 82.637-379.315-0.026v90.957h379.341l-0.026 82.432 122.445-128z" />
<glyph unicode="&#xe080;" d="M282.496 198.887c-7.885 4.582-18.816 4.582-27.725 4.582h-29.209v-60.211h26.829c9.933 0 22.579-0.691 31.129 5.299 7.885 5.299 12.313 15.667 12.313 25.549 0 9.19-5.478 20.173-13.337 24.781zM271.463 250.266c6.502 4.941 9.907 13.798 9.907 21.913 0 8.832-4.096 17.306-11.597 21.888-7.885 4.582-22.246 3.533-31.488 3.533h-12.723v-52.992h16.819c9.6 0.025 20.89-0.691 29.081 5.657zM415.36 469.76h-318.746c-47.693 0-86.375-38.681-86.375-86.4v-318.695c0-47.719 38.682-86.4 86.375-86.4h318.72c47.719 0 86.4 38.682 86.4 86.4v318.695c0.026 47.719-38.656 86.4-86.375 86.4zM269.338 98.381h-100.403v242.355h109.696c31.769 0 61.107-20.224 61.107-55.911 0-27.546-15.385-46.413-34.995-52.301v-0.691c29.107-5.99 49.869-21.811 49.869-59.929 0-35.277-24.039-73.523-85.274-73.523z" />
<glyph unicode="&#xe081;" d="M228.967 190.387c-63.949 24.141-117.658 67.251-121.216 123.418-2.278 35.815 6.758 67.123 30.055 93.44l-95.13-22.707c-19.123-4.582-30.899-23.783-26.343-42.906l79.155-330.957c4.582-19.123 23.757-30.899 42.88-26.317l40.73 9.728c-15.795 5.248-43.136 15.232-69.325 29.209l37.965 86.118c0 0 44.672-39.808 108.851-39.808 64.154 0 92.697 75.315-27.623 120.781zM495.642 106.368l-79.104 330.957c-4.582 19.123-23.783 30.899-42.906 26.317l-68.147-16.307c17.382-2.739 51.763-10.265 89.702-30.157l-29.671-82.279c0 0-24.704 27.597-90.957 30.951-62.951 3.174-97.997-64.922 24.832-105.088 94.029-30.745 124.109-90.010 122.547-144.819-0.819-28.493-10.803-51.687-22.349-69.145l69.76 16.666c19.098 4.582 30.873 23.782 26.291 42.906z" />
<glyph unicode="&#xe082;" d="M305.255 459.52c-97.562 0-177.818-75.341-185.651-170.854-57.933-22.605-99.123-79.002-99.123-144.819 0-85.683 69.76-155.366 155.469-155.366 65.971 0 122.496 41.293 145.024 99.379 95.385 8.013 170.547 88.141 170.547 185.523 0 102.63-83.533 186.137-186.265 186.137zM175.949 40.269c-57.139 0-103.629 46.438-103.629 103.577 0 37.939 20.531 71.168 51.072 89.216 15.616-70.477 71.347-126.080 141.952-141.568-18.023-30.618-51.354-51.226-89.395-51.226zM177.613 247.399c55.757-0.87 100.941-45.952 101.939-101.658-51.149 10.265-91.571 50.56-101.939 101.658zM331.392 145.792c-1.050 84.25-69.504 152.525-153.831 153.395 12.032 59.443 64.691 104.345 127.667 104.345 71.834 0 130.253-58.393 130.253-130.15 0.026-62.848-44.723-115.431-104.089-127.591zM73.728 349.056c29.312 0 53.12 23.808 53.12 53.069 0 29.261-23.808 53.069-53.12 53.069-29.287 0-53.095-23.808-53.095-53.069 0-29.261 23.808-53.069 53.095-53.069zM73.728 431.411c16.153 0 29.312-13.133 29.312-29.286 0-16.128-13.133-29.287-29.312-29.287-16.128 0-29.287 13.133-29.287 29.287 0 16.154 13.159 29.286 29.287 29.286z" />
<glyph unicode="&#xe083;" d="M206.618 241.869c0 0 48.461 3.763 48.461 62.976s-39.654 88.115-89.856 88.115h-165.223v-330.906h165.223c0 0 100.839-3.303 100.839 97.639 0.026 0 4.403 82.176-59.443 82.176zM72.807 334.157h92.416c0 0 22.451 0 22.451-34.432s-13.209-39.424-28.211-39.424h-86.656v73.856zM160.538 120.858h-87.731v88.448h92.416c0 0 33.485 0.461 33.485-45.44 0-38.707-25.011-42.726-38.17-43.008zM400.589 308.762c-122.112 0-122.010-127.104-122.010-127.104s-8.371-126.49 122.010-126.49c0 0 108.647-6.502 108.647 88.013h-55.859c0 0 1.843-35.61-50.918-35.61 0 0-55.885-3.891-55.885 57.549h164.531c0.026-0.026 18.023 143.642-110.515 143.642zM450.279 209.28h-104.294c0 0 6.835 51.021 55.885 51.021 48.998 0 48.409-51.021 48.409-51.021zM463.309 373.479h-131.021v-40.755h130.995v40.755z" />
<glyph unicode="&#xe084;" d="M244.378 38.195h24.423v-54.835c166.681 17.51 255.539 182.81 241.178 299.29-14.438 116.48-139.546 196.915-280.167 179.687-140.544-17.28-242.355-125.671-227.943-242.151 13.107-105.984 117.76-182.093 242.509-181.991zM401.792 150.81h-46.899v126.797c0 5.069-0.461 9.882-1.357 14.259-0.743 3.815-2.151 6.989-4.199 9.702-1.945 2.56-4.813 4.659-8.448 6.246-3.891 1.69-9.293 2.56-15.949 2.56-13.747 0-24.499-3.584-32-10.624-7.501-6.989-11.085-16.205-11.085-28.135v-120.807h-46.899v126.797c0 5.274-0.487 10.112-1.485 14.413-0.87 3.891-2.329 7.142-4.429 9.907-1.971 2.585-4.583 4.583-8.038 6.067-3.686 1.561-8.704 2.381-14.874 2.381-7.987 0-14.848-1.485-20.327-4.403-5.709-3.047-10.393-6.707-13.875-10.855-3.507-4.198-6.067-8.55-7.629-12.928-1.587-4.403-2.355-7.962-2.355-10.573v-120.807h-46.874v196.992h45.005v-15.385c14.669 13.005 33.408 19.584 55.808 19.584 13.056 0 25.088-2.611 35.815-7.757 7.833-3.763 14.182-9.395 18.893-16.743 5.888 6.349 12.902 11.597 20.813 15.59 11.648 5.939 24.551 8.909 38.4 8.909 10.291 0 19.789-1.075 28.262-3.2 8.755-2.227 16.461-5.786 22.861-10.573 6.605-4.941 11.801-11.417 15.462-19.226 3.61-7.68 5.453-16.87 5.453-27.341v-140.851z" />
<glyph unicode="&#xe085;" d="M17.203 135.527l8.397 35.84-8.397 37.043c-0.23 1.101-2.329 1.945-4.915 1.945-2.611 0-4.711-0.845-4.915-1.945l-7.373-37.043 7.399-35.84c0.205-1.127 2.304-1.945 4.915-1.945 2.56 0 4.659 0.819 4.889 1.945zM69.683 115.635l7.117 55.399-7.117 85.683c-0.205 2.202-2.867 3.917-6.093 3.917-3.251 0-5.913-1.69-6.067-3.891l-6.323-85.709 6.323-55.399c0.154-2.176 2.816-3.865 6.067-3.865 3.225-0.026 5.888 1.69 6.093 3.865zM122.061 116.531l5.939 54.477-5.939 114.099c-0.153 2.663-3.328 4.787-7.194 4.787-3.891 0-7.066-2.099-7.194-4.787l-5.273-114.099 5.273-54.503c0.128-2.663 3.302-4.762 7.194-4.762 3.865 0 7.040 2.099 7.194 4.787zM174.336 117.351l4.864 53.632-4.864 114.944c-0.128 3.174-3.712 5.683-8.192 5.683-4.506 0-8.089-2.509-8.218-5.683l-4.327-114.944 4.352-53.632c0.077-3.149 3.686-5.658 8.192-5.658 4.48 0 8.064 2.457 8.192 5.658zM226.56 118.016l3.84 52.941-3.84 131.789c-0.077 3.635-4.198 6.579-9.165 6.579s-9.063-2.944-9.139-6.579l-3.456-131.738c0-0.077 3.456-52.966 3.456-52.966 0.077-3.584 4.173-6.528 9.139-6.528 4.966-0.026 9.088 2.893 9.165 6.502zM263.117 111.462c0.154 0 181.734-0.103 182.912-0.103 36.454 0 65.971 28.57 65.971 63.821s-29.517 63.821-65.971 63.821c-9.063 0-17.664-1.767-25.523-4.966-5.248 57.497-55.142 102.605-115.968 102.605-14.873 0-29.389-2.816-42.189-7.629-4.966-1.869-6.323-3.763-6.349-7.475v-202.522c0.051-3.917 3.175-7.168 7.117-7.552z" />
<glyph unicode="&#xe086;" d="M148.685 433.357c-79.104-40.678-128.205-120.857-128.205-209.843 0-16.231 2.048-32.691 5.657-49.101l203.495 185.293c-21.709 19.738-78.746 71.629-80.947 73.651zM353.101 438.375c-30.745 13.977-63.411 21.145-97.127 21.145-23.91 0-47.488-3.968-70.4-11.289l167.501-152.346v142.49zM388.915 417.613v-271.821h89.216c8.781 25.139 13.363 51.277 13.363 77.721 0.026 77.619-38.989 150.323-102.579 194.099zM37.427 136.243c17.255-43.367 47.565-80.666 86.221-107.111v185.6l-52.327-47.642c-17.869-16.256-32.794-29.849-33.895-30.848zM159.488 8.346c23.936-10.803 48.973-17.485 74.752-19.865h43.238c77.286 7.219 146.611 52.966 184.295 121.472h-302.285v-101.606z" />
<glyph unicode="&#xe087;" d="M431.488 356.224c6.963-13.158 10.419-29.414 10.419-48.947 0-44.339-18.688-80.128-56.013-107.29-37.376-27.187-89.575-40.755-156.621-40.755h-15.693c-11.802 0-23.603-9.267-26.24-20.608l-18.841-80.358c-2.637-11.366-14.439-20.659-26.24-20.659h-34.355l-3.072-13.133c-2.662-11.341 4.813-20.634 16.589-20.634h55.015c11.802 0 23.629 9.267 26.215 20.634l18.867 80.384c2.662 11.289 14.439 20.582 26.24 20.582h15.693c67.046 0 119.245 13.568 156.595 40.781 37.402 27.136 56.115 62.899 56.115 107.289 0 19.533-3.456 35.789-10.419 48.922-6.938 13.056-17.050 23.706-30.233 31.821-1.408 0.845-2.56 1.177-4.019 1.971zM134.221 92.058l18.867 80.384c2.662 11.289 14.413 20.582 26.24 20.582h15.693c67.046 0 119.245 13.568 156.595 40.781 37.351 27.161 56.039 62.925 56.039 107.29 0 19.533-3.456 35.789-10.445 48.921-6.938 13.056-17.050 23.705-30.208 31.821-13.491 8.243-29.337 13.978-47.693 17.331-18.355 3.303-39.885 4.992-64.615 4.992h-114.56c-11.827 0-23.629-9.216-26.291-20.583l-77.466-331.495c-2.663-11.366 4.813-20.659 16.589-20.659h55.015c11.827 0 23.655 9.267 26.24 20.634zM179.175 284.391l16.537 70.375c2.662 11.341 14.464 20.608 26.214 20.608h18.023c20.967 0 36.889-3.533 47.539-10.547 10.675-6.963 16.026-17.69 16.026-32.256 0-21.99-8.32-38.989-24.832-50.918-16.538-11.904-39.527-17.92-69.223-17.92h-13.619c-11.827 0-19.277 9.318-16.666 20.659z" />
<glyph unicode="&#xe088;" d="M380.903 222.259c-7.014 2.125-11.853 3.609-8.141 13.005 7.962 20.403 8.781 37.991 0.154 50.56-16.205 23.552-60.493 22.298-111.283 0.614 0 0.026-15.949-7.091-11.879 5.811 7.808 25.549 6.631 46.951-5.53 59.315-27.546 28.058-100.813-1.101-163.687-65.024-47.053-47.898-74.368-98.662-74.368-142.566 0-83.968 105.779-140.135 209.28-140.135 135.68 0 225.92 85.351 225.92 149.043 0 38.503-31.846 60.339-60.467 69.376zM215.731 41.472c-82.586-8.166-153.856 29.337-159.232 83.866-5.35 54.503 57.242 105.344 139.827 113.562 82.611 8.218 153.882-29.312 159.232-83.814s-57.241-105.395-139.827-113.613zM515.635 290.637c-0.051 84.787-68.813 153.523-153.6 153.523-9.907 0-17.92-8.013-17.92-17.92s8.013-17.894 17.92-17.894c65.024 0 117.76-52.736 117.76-117.786 0-9.907 8.013-17.92 17.92-17.92s17.92 8.013 17.92 17.92c0 0 0 0.051 0 0.077zM444.416 293.248c-8.192 39.987-39.731 71.501-79.693 79.693-9.677 1.971-19.175-4.249-21.146-13.952-1.997-9.677 4.25-19.149 13.926-21.145 26.010-5.325 46.49-25.805 51.789-51.789 1.997-9.702 11.469-15.923 21.171-13.952 9.677 1.997 15.949 11.469 13.952 21.146zM173.363 185.523c-33.255-6.682-55.706-34.586-50.125-62.31 5.555-27.725 37.043-44.774 70.323-38.067 33.255 6.681 55.706 34.586 50.125 62.31-5.555 27.699-37.043 44.749-70.323 38.067z" />
<glyph unicode="&#xe089;" d="M216.781 457.856c-111.386-18.688-196.301-115.507-196.301-232.218 0-58.009 21.018-111.078 55.783-152.090 82.458 39.911 140.083 130.176 140.519 235.264v149.043zM256.026 166.195c-14.669-60.749-58.496-112.666-113.101-147.175 33.561-18.406 72.089-28.877 113.075-28.877 41.011 0 79.514 10.471 113.101 28.902-54.605 34.509-98.407 86.4-113.075 147.149zM295.271 309.939c0-105.574 57.753-196.327 140.467-236.39 34.765 41.063 55.783 94.106 55.783 152.090 0 116.685-84.864 213.504-196.25 232.192v-147.891z" />
<glyph unicode="&#xe08a;" d="M311.399 227.763c-5.888 3.942-13.159 7.347-21.504 10.137-8.294 2.714-17.639 5.248-27.827 7.475-8.038 1.92-13.901 3.405-17.408 4.403-3.405 0.973-6.81 2.329-10.112 4.045-3.2 1.638-5.734 3.61-7.501 5.863-1.69 2.125-2.509 4.557-2.509 7.526 0 4.813 2.56 8.883 7.808 12.416 5.453 3.686 12.8 5.53 21.811 5.53 9.702 0 16.768-1.664 21.017-4.966 4.352-3.431 8.166-8.243 11.264-14.387 2.739-4.813 5.146-8.141 7.552-10.291 2.509-2.304 6.144-3.482 10.803-3.482 5.146 0 9.498 1.869 12.954 5.555 3.405 3.687 5.146 7.885 5.146 12.493 0 4.813-1.357 9.779-3.942 14.771-2.56 4.915-6.707 9.702-12.211 14.157-5.504 4.403-12.493 7.987-20.787 10.649-8.243 2.662-18.125 3.968-29.363 3.968-14.054 0-26.471-1.997-36.915-5.965-10.624-4.045-18.841-9.907-24.474-17.459-5.657-7.603-8.525-16.435-8.525-26.215 0-10.24 2.739-18.995 8.141-25.933 5.325-6.887 12.595-12.339 21.607-16.307 8.832-3.84 19.917-7.271 32.973-10.137 9.6-2.048 17.382-4.019 23.091-5.863 5.478-1.741 10.035-4.327 13.414-7.629 3.251-3.149 4.839-7.142 4.839-12.262 0-6.451-3.046-11.725-9.319-16.154-6.4-4.505-14.925-6.784-25.344-6.784-7.552 0-13.721 1.127-18.279 3.353-4.531 2.202-8.089 5.017-10.547 8.371-2.56 3.507-4.992 7.936-7.219 13.209-1.997 4.813-4.48 8.551-7.373 11.085-3.047 2.637-6.758 3.968-11.085 3.968-5.274 0-9.677-1.69-13.133-5.017-3.482-3.379-5.248-7.475-5.248-12.237 0-7.577 2.714-15.462 8.038-23.373 5.299-7.885 12.262-14.233 20.736-18.918 11.827-6.451 26.982-9.728 45.030-9.728 15.053 0 28.262 2.406 39.322 7.091 11.161 4.787 19.738 11.495 25.549 19.942 5.863 8.525 8.807 18.253 8.807 28.902 0 8.935-1.69 16.563-5.094 22.81-3.379 6.17-8.141 11.366-14.183 15.386zM256 469.76c-135.731 0-245.76-110.029-245.76-245.76s110.029-245.76 245.76-245.76c135.757 0 245.76 110.029 245.76 245.76s-110.003 245.76-245.76 245.76zM314.906 86.375c-12.442 0-24.192 3.226-34.483 8.909-7.475-1.433-15.155-2.176-23.040-2.176-69.479 0-125.824 57.984-125.824 129.459 0 8.935 0.87 17.613 2.56 26.035-6.374 11.136-10.035 24.090-10.035 37.939 0 41.447 32.666 75.085 72.96 75.085 14.285 0 27.571-4.224 38.835-11.52 6.963 1.255 14.157 1.894 21.504 1.894 69.479 0 125.824-57.984 125.824-129.459 0-9.523-0.998-18.816-2.893-27.776 4.839-10.061 7.552-21.351 7.552-33.357-0.026-41.421-32.666-75.034-72.96-75.034z" />
<glyph unicode="&#xe08b;" d="M477.978 171.827c3.405 15.974 5.197 32.563 5.197 49.613 0 127.642-100.582 231.142-224.666 231.142-13.082 0-25.933-1.177-38.4-3.379-20.121 13.005-43.853 20.557-69.35 20.557-71.936 0-130.279-60.032-130.279-134.067 0-24.729 6.554-47.897 17.92-67.789-2.969-15.001-4.557-30.541-4.557-46.464 0-127.642 100.608-231.142 224.666-231.142 14.055 0 27.827 1.331 41.139 3.865 18.329-10.137 39.296-15.897 61.568-15.897 71.987 0 130.304 60.007 130.304 134.041 0 21.376-4.889 41.6-13.543 59.52zM373.735 110.95c-10.394-15.13-25.753-27.136-45.645-35.635-19.712-8.423-43.289-12.697-70.195-12.697-32.281 0-59.315 5.837-80.435 17.382-15.104 8.371-27.546 19.738-36.992 33.741-9.549 14.183-14.387 28.237-14.387 41.779 0 8.474 3.149 15.821 9.369 21.837 6.169 5.939 14.054 8.986 23.45 8.986 7.706 0 14.387-2.381 19.789-7.065 5.171-4.531 9.6-11.213 13.159-19.789 3.994-9.395 8.32-17.305 12.903-23.552 4.403-5.99 10.752-11.059 18.841-15.002 8.141-3.942 19.123-5.965 32.64-5.965 18.56 0 33.792 4.070 45.235 12.135 11.213 7.885 16.64 17.305 16.64 28.851 0 9.113-2.841 16.307-8.678 21.914-6.118 5.863-14.208 10.445-23.987 13.594-10.214 3.277-24.089 6.81-41.216 10.496-23.322 5.146-43.136 11.238-58.88 18.125-16.077 7.014-29.082 16.793-38.579 29.030-9.651 12.391-14.541 28.006-14.541 46.336 0 17.459 5.12 33.203 15.257 46.771 10.061 13.466 24.704 23.962 43.597 31.155 18.662 7.091 40.857 10.701 65.946 10.701 20.070 0 37.709-2.406 52.429-7.091 14.797-4.762 27.289-11.161 37.094-19.046 9.882-7.962 17.229-16.461 21.863-25.241 4.659-8.935 7.014-17.792 7.014-26.368 0-8.269-3.098-15.769-9.216-22.323-6.144-6.579-13.926-9.907-23.065-9.907-8.295 0-14.822 2.099-19.353 6.195-4.199 3.814-8.576 9.805-13.389 18.355-5.606 10.983-12.39 19.609-20.147 25.677-7.577 5.913-20.173 8.935-37.529 8.935-16.102 0-29.209-3.328-38.938-9.907-9.395-6.349-13.927-13.594-13.927-22.17 0-5.274 1.459-9.677 4.48-13.44 3.2-4.019 7.68-7.552 13.389-10.471 5.888-3.046 11.981-5.478 18.073-7.219 6.246-1.767 16.717-4.403 31.104-7.834 18.176-4.019 34.867-8.525 49.639-13.363 14.976-4.915 27.904-11.008 38.451-18.048 10.752-7.219 19.277-16.486 25.319-27.52 6.041-11.111 9.113-24.807 9.113-40.704 0.026-19.098-5.248-36.429-15.693-51.635z" />
<glyph unicode="&#xe08c;" d="M143.335 261.325c0 41.907 11.111 68.557 48.358 74.547 13.005 2.56 40.089 1.639 57.319 1.639v-64c0-0.563 0.077-1.613 0.231-2.15 0.691-2.56 3.021-4.48 5.811-4.48 1.587 0 3.046 0.819 4.582 2.304l159.616 159.591-225.997 0.026c-94.055 0-142.055-54.17-142.055-155.29v-212.173l92.135 92.211v107.776zM368.691 294.426v-107.75c0-41.907-11.136-68.582-48.384-74.547-13.005-2.56-40.064-1.639-57.293-1.639v64c0 0.563-0.103 1.613-0.231 2.151-0.717 2.586-3.072 4.48-5.863 4.505-1.587 0-3.021-0.819-4.583-2.329l-159.616-159.565 226.048-0.051c94.029 0 142.029 54.144 142.029 155.289v212.173l-92.109-92.237z" />
<glyph unicode="&#xe08d;" d="M443.879 369.715c0 29.44-44.339 32.717-44.339 32.717l-104.166 6.553c0 0-2.227 28.365-23.296 38.195-21.043 9.805-44.185 6.835-60.8 6.656s-20.583-21.402-20.583-41.421 0.384-43.059 0.384-57.6c0-26.010-11.443-37.095-40.089-37.095h-59.059c-16.512 1.075-29.389-1.639-29.389-15.001 0-13.338 19.456-127.283 46.131-153.575 15.488-15.257 110.182-25.959 130.125-25.959s13.312 58.906 18.841 58.906 11.648-33.28 43.059-41.063c31.411-7.834 73.344-6.375 75.571-28.723 2.893-29.491 5.529-67.661-13.875-70.375l-43.904-1.741c-30.106 2.176-22.041 35.046-8.755 35.046s19.942 0.538 19.942 0.538l1.664 35.993c0 0-68.941 8.141-71.885-38.375-2.663-42.496 4.634-62.541 9.984-66.893 5.376-4.403 14.643-12.902 99.072-12.902 118.963 0 75.367 346.701 75.367 376.115zM395.264 215.783c-4.659-4.966-21.555 8.218-37.683 8.218-16.154 0-33.587-8.55-37.683-2.944-4.070 5.632 3.763 50.995 34.176 50.995s45.875-51.277 41.19-56.269zM148.557 373.351c0 5.811 1.511 76.39 1.511 76.39l-89.754-88.039c0 0 62.003 0 74.163 0 12.211 0 14.080 5.811 14.080 11.648z" />
<glyph unicode="&#xe08e;" d="M156.391 456.909l-146.151-91.034 100.122-83.943 145.639 94.592-99.61 80.384zM344.371 70.553c-2.611 0-5.197 0.896-7.296 2.663l-81.075 67.226-81.075-67.251c-2.099-1.741-4.71-2.663-7.296-2.663-2.176 0-4.352 0.589-6.246 1.843l-60.058 39.296v-23.193l154.675-97.383 154.675 97.408v23.194l-60.058-39.296c-1.894-1.255-4.070-1.843-6.247-1.843zM501.76 365.875l-146.15 91.034-99.61-80.384 145.613-94.567 100.147 83.917zM256 190.95l90.291-74.957 144.435 94.413-89.088 71.527-145.639-90.983zM165.709 115.993l90.291 74.957-145.613 91.008-89.088-71.552 144.41-94.413z" />
<glyph unicode="&#xe08f;" d="M389.12 224c0-73.523-59.623-133.12-133.12-133.12-73.523 0-133.12 59.597-133.12 133.12 0 8.755 0.871 17.305 2.509 25.6h-89.549v-176.947c0-37.991 30.771-68.813 68.813-68.813h302.694c37.991 0 68.813 30.797 68.813 68.813v176.947h-89.523c1.613-8.295 2.483-16.845 2.483-25.6zM407.347 444.16h-302.695c-38.016 0-68.813-30.822-68.813-68.813v-74.547h111.462c24.089 34.048 63.795 56.32 108.697 56.32s84.608-22.272 108.697-56.32h111.463v74.547c0 37.991-30.822 68.813-68.813 68.813zM441.011 359.168c0-6.784-5.529-12.288-12.288-12.288h-36.839c-6.759 0-12.288 5.529-12.288 12.288v36.864c0 6.784 5.555 12.288 12.288 12.288h36.839c6.784 0 12.288-5.53 12.288-12.288v-36.864zM337.92 224c0 45.261-36.685 81.92-81.92 81.92s-81.92-36.659-81.92-81.92 36.685-81.92 81.92-81.92 81.92 36.659 81.92 81.92z" />
<glyph unicode="&#xe090;" d="M435.328 146.688c-19.942 14.055-44.825 13.056-58.983-7.040s-113.101-144.205-275.2-92.672c6.093-5.325 12.544-10.394 19.302-15.155 106.342-74.88 253.235-49.382 328.141 56.986 14.131 20.096 6.656 43.853-13.261 57.882zM122.496 162.56c-10.343 22.298-68.327 170.061 57.344 284.672-7.68-2.637-15.257-5.657-22.758-9.139-118.042-54.656-169.395-194.637-114.739-312.679 10.317-22.323 34.637-27.75 56.755-17.51 22.118 10.265 33.715 32.333 23.399 54.656zM277.146 458.957c-24.474 2.202-41.319-16.128-43.52-40.423-2.176-24.294 11.136-45.337 35.61-47.539 24.499-2.202 181.427-25.856 217.856-192.025 1.587 7.962 2.714 16.051 3.481 24.294 11.648 129.536-83.891 244.019-213.427 255.693zM176.41 210.457c-6.733-15.897-7.833-31.053-2.406-33.869 3.738-1.945 9.575 2.509 15.053 10.649 2.176-8.909 7.552-16.921 15.232-23.373-8.038-2.969-13.312-7.834-13.312-13.337 0-9.037 14.233-16.358 31.769-16.358 15.821 0 28.928 5.939 31.36 13.747 0.64 0 3.149 0 3.763 0 2.457-7.808 15.539-13.747 31.385-13.747 17.562 0 31.769 7.322 31.769 16.358 0 5.504-5.248 10.342-13.312 13.337 7.654 6.451 13.056 14.464 15.207 23.373 5.504-8.141 11.315-12.595 15.079-10.649 5.427 2.816 4.352 17.971-2.432 33.869-5.299 12.442-12.493 21.658-17.971 23.706 0.077 0.768 0.128 1.587 0.128 2.406 0 4.813-1.357 9.267-3.661 12.903 0.051 0.281 0.051 0.563 0.051 0.845 0 2.227-0.538 4.301-1.433 6.093-1.382 32.409-22.502 58.189-56.678 58.189s-55.322-25.779-56.704-58.189c-0.896-1.817-1.434-3.891-1.434-6.119 0-0.281 0-0.563 0.025-0.845-2.253-3.609-3.609-8.064-3.609-12.903 0-0.819 0.051-1.613 0.102-2.406-5.453-2.048-12.672-11.239-17.971-23.68z" />
<glyph unicode="&#xe091;" d="M256 469.76c-135.731 0-245.76-110.029-245.76-245.76 0-62.055 22.989-118.733 60.928-161.946 38.451 38.451 91.111 60.032 151.552 58.087 77.107-2.509 137.984-39.015 172.877-98.407 64.128 44.339 106.163 118.375 106.163 202.266 0 135.731-110.029 245.76-245.76 245.76zM376.141 136.397c-4.327-7.168-13.594-9.37-20.736-5.043-56.935 34.765-128.512 42.624-212.839 23.373-8.089-1.869-16.231 3.2-18.048 11.366-1.869 8.064 3.174 16.205 11.315 18.048 92.288 21.094 171.443 11.981 235.29-26.983 7.117-4.352 9.395-13.645 5.017-20.762zM405.811 206.106c-5.453-8.909-17.101-11.673-25.959-6.195-65.126 40.013-164.403 51.61-241.434 28.237-10.010-3.021-20.557 2.637-23.552 12.57-3.021 10.010 2.611 20.557 12.57 23.552 87.987 26.752 197.376 13.798 272.179-32.154 8.883-5.53 11.673-17.101 6.195-26.010zM408.346 278.323c-78.080 46.413-206.874 50.637-281.421 28.032-11.981-3.661-24.627 3.097-28.263 15.078-3.609 11.981 3.149 24.679 15.079 28.263 85.607 25.984 227.84 20.966 317.722-32.41 10.777-6.4 14.336-20.301 7.962-31.079-6.425-10.726-20.301-14.259-31.079-7.885zM221.159 46.643c-34.585 1.101-63.36-12.365-84.378-37.581 35.303-19.635 75.955-30.822 119.219-30.822 20.864 0 41.113 2.611 60.467 7.501-18.534 38.067-50.867 59.469-95.309 60.902z" />
<glyph unicode="&#xe092;" d="M256 449.28c-124.416 0-225.28-100.864-225.28-225.28 0-56.883 21.069-108.826 55.859-148.455 35.226 35.226 83.507 55.015 138.931 53.223 70.682-2.279 126.464-35.763 158.464-90.189 58.778 40.653 97.306 108.519 97.306 185.421 0 124.416-100.89 225.28-225.28 225.28zM366.157 143.693c-3.968-6.579-12.467-8.601-18.995-4.634-52.173 31.872-117.811 39.065-195.123 21.427-7.424-1.715-14.874 2.944-16.537 10.419-1.715 7.424 2.918 14.848 10.393 16.538 84.582 19.328 157.159 10.983 215.68-24.73 6.502-3.993 8.576-12.493 4.582-19.021zM393.293 207.591c-4.992-8.141-15.642-10.675-23.783-5.658-59.648 36.659-150.682 47.283-221.287 25.856-9.165-2.765-18.841 2.406-21.606 11.52-2.765 9.165 2.407 18.841 11.52 21.607 80.666 24.499 180.941 12.647 249.498-29.491 8.141-5.043 10.726-15.642 5.658-23.834zM395.648 273.792c-71.552 42.547-189.645 46.413-257.971 25.702-10.957-3.353-22.554 2.867-25.933 13.824-3.302 10.983 2.893 22.605 13.875 25.907 78.464 23.834 208.845 19.226 291.226-29.696 9.882-5.863 13.133-18.611 7.271-28.467-5.863-9.856-18.56-13.082-28.467-7.271zM224.051 61.414c-31.693 1.024-58.087-11.341-77.338-34.457 32.358-17.971 69.607-28.237 109.287-28.237 19.123 0 37.709 2.381 55.424 6.887-16.998 34.867-46.618 54.503-87.373 55.808z" />
</font>
</defs>
</svg>
